<?xml version="1.0" standalone="no"?>
<!DOCTYPE svg PUBLIC "-//W3C//DTD SVG 1.1//EN" "http://www.w3.org/Graphics/SVG/1.1/DTD/svg11.dtd" >
<svg xmlns="http://www.w3.org/2000/svg">
<metadata>Generated by IcoMoon</metadata>
<defs>
<font id="icomoon" horiz-adv-x="1024">
<font-face units-per-em="1024" ascent="960" descent="-64" />
<missing-glyph horiz-adv-x="1024" />
<glyph unicode="&#x20;" horiz-adv-x="512" d="" />
<glyph unicode="&#xe900;" glyph-name="markdown-attachment" horiz-adv-x="913" d="M66.783 960h779.13c36.883 0 66.783-29.9 66.783-66.783v-890.435c0-36.883-29.9-66.783-66.783-66.783h-779.13c-36.883 0-66.783 29.9-66.783 66.783v890.435c0 36.883 29.9 66.783 66.783 66.783zM734.609 396.482v228.969c0 12.646-9.967 22.897-22.261 22.897s-22.261-10.251-22.261-22.897v-228.969h-66.783l89.043-148.83 89.043 148.83h-66.783zM556.522 620.522c0 15.368-12.458 27.826-27.826 27.826h-0.31c-16.864 0-32.28-9.528-39.821-24.611l-121.26-242.519-121.26 242.519c-7.542 15.083-22.958 24.611-39.821 24.611h-0.31c-15.368 0-27.826-12.458-27.826-27.826v-350.609h44.522v300.522l112.83-235.918c5.869-12.271 18.263-20.082 31.865-20.082s25.997 7.811 31.865 20.082l112.83 235.918v-300.522h44.522v350.609z" />
<glyph unicode="&#xe901;" glyph-name="signup" d="M406.528 300.877l-134.716 134.716-33.673-33.673 168.388-168.388 296.127 296.127-33.673 33.673-262.43-262.43zM238.14 960v-142.884c0-13.152 10.662-23.814 23.814-23.814v0h428.651c13.152 0 23.814 10.662 23.814 23.814v0 142.884h190.512c26.304 0 47.628-21.324 47.628-47.628v0-928.744c0-26.304-21.324-47.628-47.628-47.628v0h-857.302c-26.304 0-47.628 21.324-47.628 47.628v0 928.744c0 26.304 21.324 47.628 47.628 47.628v0h190.512zM285.767 960h381.023v-119.070h-381.023v119.070z" />
<glyph unicode="&#xe902;" glyph-name="attendance" horiz-adv-x="1094" d="M613.143 405.318l-31.092 21.155c-11.516 8.162-21.142 15.533-30.504 23.212l0.948-0.754c-11.217 9.309-20.084 18.199-26.717 28.951-4.43 8.431-7.426 18.289-8.379 28.738l-0.023 0.307c-0.861 9.821 0 19.712 2.048 29.556 6.353 21.807 24.948 33.908 37.679 54.831s21.574 32.605 24.367 41.472c5.562 16.989 9.449 34.537 11.892 51.363 1.559 10.287 2.351 20.177 2.351 29.277 1.559 35.119 1.559 63.279 0 84.48-2.327 31.791-22.924 82.711-40.378 98.281-17.455 15.593-15.919 20.387-49.943 40.495-34.025 20.061-48.733 23.226-95.418 23.319-46.685 0.070-90.438-16.989-119.389-37.562-4.678-3.258-8.332-7.215-12.451-10.752-5.609-4.98-10.868-10.17-15.732-15.5-4.957-5.493-9.641-11.493-13.882-17.814l-0.361-0.571c-3.724-5.958-21.155-32.861-23.552-79.895v-84.48c0-9.1 0.861-18.991 2.397-29.277 2.397-16.826 6.284-34.374 12.241-52.969 2.397-7.261 14.429-24.506 17.478-31.418 14.801-25.065 37.865-41.588 44.218-63.279 2.071-9.844 2.863-19.735 2.001-29.556-0.931-9.775-3.421-19.503-8.355-29.044-6.679-10.752-15.476-19.619-26.694-28.951-8.355-6.912-17.85-14.010-29.626-22.458l-163.887-111.5c-35.561-24.25-74.38-78.359-74.38-120.413v-100.538c0-9.309 47.127-45.568 56.972-45.568l520.611 0.605c-28.603 43.877-45.615 97.579-45.615 155.255 0 0.146 0 0.292 0 0.438v-0.023c0 0.113 0 0.247 0 0.382 0 77.862 30.96 148.492 81.242 200.252l-0.067-0.069zM1070.545 203.636c0-134.958-109.405-244.364-244.364-244.364s-244.364 109.405-244.364 244.364c0 134.958 109.405 244.364 244.364 244.364s244.364-109.405 244.364-244.364zM815.407 129.862l127.046 127.023-32.908 32.931-127.069-127.069-59.206 59.043-32.931-32.908 92.16-91.951 32.931 32.908z" />
<glyph unicode="&#xe903;" glyph-name="notice" d="M512-29.867c263.919 0 477.867 213.948 477.867 477.867s-213.948 477.867-477.867 477.867-477.867-213.948-477.867-477.867 213.948-477.867 477.867-477.867zM512-64c-282.772 0-512 229.228-512 512s229.228 512 512 512 512-229.228 512-512-229.228-512-512-512zM517.689 220.444c15.709 0 28.444 12.735 28.444 28.444s-12.735 28.444-28.444 28.444v0c-15.709 0-28.444-12.735-28.444-28.444s12.735-28.444 28.444-28.444v0zM517.689 664.178c-15.709 0-28.444-12.735-28.444-28.444v0-261.689c0-15.709 12.735-28.444 28.444-28.444s28.444 12.735 28.444 28.444v0 261.689c0 15.709-12.735 28.444-28.444 28.444v0z" />
<glyph unicode="&#xe904;" glyph-name="facebook" horiz-adv-x="561" d="M170.667 569.905v170.667c0 121.187 98.242 219.429 219.429 219.429v0h170.667v-170.667h-121.905c-40.396 0-73.143-32.747-73.143-73.143v0-146.286h195.048l-48.762-195.048h-146.286v-438.857h-195.048v438.857h-170.667v195.048h170.667z" />
<glyph unicode="&#xe905;" glyph-name="login-mail" d="M153.6 712.934v-495.258h307.2c2.534-15.36 6.963-30.72 12.774-51.2h-322.458c-28.237 0-48.717 25.267-48.717 53.504v511.923c0 28.288 20.454 48.896 48.717 48.896h665.523c28.288 0 53.683-20.608 53.683-48.896v-205.056c-20.48 7.731-35.84 13.875-51.2 18.227v169.165l-316.083-217.728c-8.22-5.664-18.392-9.047-29.355-9.047-11.587 0-22.291 3.779-30.947 10.172l0.143-0.101-289.28 215.373zM711.834 251.827c0 37.555 16.512 59.853 44.339 59.853s45.414-22.835 45.414-59.853c0-36.992-17.587-59.827-45.67-59.827-27.571 0-44.083 22.579-44.083 59.827zM542.797 253.67c0-131.738 89.651-218.624 226.406-218.624 27.827 0 55.014 3.405 75.494 9.472v42.752c-15.36-5.248-43.469-8.653-71.552-8.653-111.565 0-182.246 67.2-182.246 173.747 0 104.704 70.579 177.664 172.134 177.664 99.738 0 165.35-61.926 165.35-156.928 0-53.274-16.845-86.886-43.366-86.886-16 0-24.96 10.752-24.96 29.414v140.288h-51.2v-30.72h-7.014c-10.496 20.48-33.331 36.147-61.414 36.147-52.48 0-88.192-43.725-88.192-107.52 0-66.662 36.224-111.437 90.829-111.437 30.438 0 51.968 13.85 62.976 39.45h4.736c5.76-25.6 29.645-40.448 62.464-40.448 63.488 0 103.142 52.48 103.142 135.936 0 115.738-86.093 195.251-211.814 195.251-131.226 0-221.773-89.242-221.773-218.88z" />
<glyph unicode="&#xe906;" glyph-name="login-naver" d="M0 960h341.333l341.333-554.667v554.667h341.333v-1024h-341.333l-341.333 512v-512h-341.333z" />
<glyph unicode="&#xe907;" glyph-name="profile-setting" d="M312.405 452.437c0-113.899 95.168-212.16 209.856-212.16 114.645 0 210.731 98.24 210.731 212.16 0 113.877-96.085 208.427-210.731 208.427-114.688 0-209.856-94.549-209.856-208.427zM633.707 872.149c7.552-40.512 12.096-75.776 51.029-94.613 16.719-8.134 30.763-16.283 44.169-25.308l-1.289 0.818c36.437-24.256 68.331-10.027 107.819 3.883l28.736 9.493c4.001 1.37 8.611 2.161 13.405 2.161 15.703 0 29.425-8.483 36.833-21.117l0.109-0.201 61.035-105.728c3.596-6.121 5.719-13.482 5.719-21.338 0-12.652-5.507-24.017-14.254-31.83l-0.042-0.036-22.613-20.117c-31.787-27.264-60.032-47.787-57.216-91.413 1.045-16.405 0.939-32.981-0.277-49.365-3.136-43.2 25.173-64.704 56.448-91.52l26.709-22.869c9.155-7.872 14.918-19.468 14.918-32.411 0-7.905-2.15-15.307-5.896-21.655l0.109 0.199-61.291-105.387c-7.529-12.782-21.222-21.224-36.887-21.224-4.973 0-9.747 0.851-14.185 2.415l0.299-0.092-33.429 11.52c-39.488 13.611-71.467 27.435-108.139 2.859-6.869-4.629-13.952-9.024-21.248-13.227-7.253-4.203-14.592-8.128-22.037-11.755-39.68-19.499-43.669-54.123-51.605-95.083l-6.72-34.709c-3.938-19.769-21.117-34.471-41.742-34.539l-121.949-0.384c-0.044 0-0.096 0-0.148 0-20.796 0-38.117 14.878-41.899 34.57l-0.043 0.267-6.421 34.517c-7.595 40.533-12.117 75.797-51.093 94.677-16.745 8.156-30.788 16.291-44.207 25.285l1.327-0.837c-36.373 24.235-68.267 10.069-107.733-3.84l-30.187-10.176c-4.072-1.422-8.765-2.243-13.651-2.243-15.711 0-29.438 8.491-36.843 21.135l-0.109 0.201-60.843 105.387c-3.59 6.117-5.71 13.472-5.71 21.323 0 12.728 5.573 24.154 14.412 31.971l0.045 0.039 23.872 21.035c31.808 27.264 60.075 47.787 57.301 91.477-1.067 16.32-1.003 32.896 0.213 49.323 3.157 43.179-25.173 64.811-56.427 91.52l-26.709 22.869c-9.155 7.872-14.918 19.468-14.918 32.411 0 7.905 2.15 15.307 5.896 21.655l-0.109-0.199 61.312 105.429c7.531 12.772 21.219 21.206 36.877 21.206 4.977 0 9.754-0.852 14.195-2.418l-0.299 0.092 33.451-11.52c39.445-13.653 71.424-27.499 108.096-2.88 6.891 4.651 13.973 9.003 21.248 13.227 7.275 4.181 14.635 8.171 22.059 11.797 39.637 19.413 43.648 54.037 51.627 95.040l6.72 34.709c3.929 19.778 21.111 34.49 41.742 34.56l121.906 0.384c0.038 0 0.082 0 0.127 0 20.796 0 38.117-14.878 41.899-34.57l0.043-0.267 6.443-34.56z" />
<glyph unicode="&#xe908;" glyph-name="profile-post" d="M192 853.333h640c47.128 0 85.333-38.205 85.333-85.333v0-640c0-47.128-38.205-85.333-85.333-85.333v0h-640c-47.128 0-85.333 38.205-85.333 85.333v0 640c0 47.128 38.205 85.333 85.333 85.333v0zM320 298.667v-42.667h384v42.667h-384zM320 469.333v-42.667h384v42.667h-384zM320 640v-42.667h384v42.667h-384z" />
<glyph unicode="&#xe909;" glyph-name="profile-gift" d="M333.12 768c-12.757 9.954-21.99 23.898-25.842 39.937l-0.099 0.49c-5.376 24.661 10.709 48.896 35.904 54.144 4.629 0.96 9.259 1.429 13.845 1.429 22.613 0 44.117-11.349 56.448-30.677l54.549-65.323h-134.827zM338.091 893.824c-20.053-4.245-37.205-16.917-48.363-34.091-7.765-11.533-12.394-25.738-12.394-41.024 0-5.601 0.622-11.057 1.799-16.303l-0.093 0.494c2.603-12.245 8-24.128 15.104-34.901h-187.477c-23.564 0-42.667-19.103-42.667-42.667v0-85.333c0-23.564 19.103-42.667 42.667-42.667v0h384v170.667h16.107l-64.277 81.216c-17.643 28.259-48.572 46.782-83.828 46.782-7.289 0-14.393-0.792-21.23-2.294l0.652 0.12zM533.333 554.667h384v-426.667c0-35.346-28.654-64-64-64v0h-320v490.667zM106.667 554.667h384v-490.667h-320c-35.346 0-64 28.654-64 64v0 426.667zM716.843 808.427c-3.91-16.503-13.075-30.442-25.596-40.31l-0.153-0.116h-134.997l54.549 65.323c12.094 18.571 32.756 30.678 56.246 30.678 0.071 0 0.142 0 0.213 0h-0.011c4.587 0 9.216-0.469 13.824-1.429 25.173-5.248 41.28-29.483 35.925-54.144zM729.856 768c6.818 9.974 12.045 21.648 14.987 34.201l0.138 0.701c4.245 20.032 0.469 40.533-10.688 57.707-10.961 16.785-27.967 28.841-47.862 33.126l-0.501 0.090c-6.234 1.409-13.394 2.217-20.742 2.217-35.218 0-66.103-18.548-83.422-46.408l-0.242-0.417-64.192-81.216h16v-170.667h384c23.564 0 42.667 19.103 42.667 42.667v0 85.333c0 23.564-19.103 42.667-42.667 42.667v0h-187.456z" />
<glyph unicode="&#xe90a;" glyph-name="profile-mail" d="M942.187 775.765l-430.187-327.765-430.187 327.765c13.007 8.507 28.937 13.568 46.049 13.568 0.048 0 0.097 0 0.145 0h767.992c17.024 0 32.875-4.971 46.187-13.568zM974.827 736.747c4.181-10.069 6.507-21.12 6.507-32.747v-512c0-47.128-38.205-85.333-85.333-85.333v0h-768c-47.128 0-85.333 38.205-85.333 85.333v0 512c0 11.605 2.325 22.677 6.507 32.747l462.827-342.080 462.827 342.080z" />
<glyph unicode="&#xe90b;" glyph-name="list-order" d="M0 320h1024v-69.818h-1024v69.818zM0 482.909h1024v-69.818h-1024v69.818zM0 645.818h1024v-69.818h-1024v69.818z" />
<glyph unicode="&#xe90c;" glyph-name="member-profile-phone-full" d="M298.581 216.107c65.451-62.805 233.472-208.896 383.915-236.245 100.651-18.304 201.813 35.072 303.509 160.149 5.946 7.275 9.549 16.667 9.549 26.901 0 11.78-4.774 22.445-12.493 30.166l-157.824 157.845c-7.722 7.725-18.391 12.503-30.176 12.503s-22.454-4.778-30.176-12.503l-110.080-110.080c-3.86-3.859-9.193-6.246-15.083-6.246s-11.222 2.387-15.083 6.246l-296.32 296.32c-3.859 3.86-6.246 9.193-6.246 15.083s2.387 11.222 6.246 15.083l110.080 110.080c7.718 7.721 12.492 18.386 12.492 30.165s-4.774 22.445-12.492 30.165l-157.824 157.845c-7.721 7.717-18.385 12.491-30.164 12.491-10.244 0-19.645-3.61-27-9.628l0.076 0.060c-125.056-101.653-178.432-202.837-160.128-303.509 27.307-150.229 160.427-305.408 221.44-369.088l-0.128-0.149c2.091-2.133 4.416-4.416 6.955-6.891 2.432-2.496 4.693-4.779 6.827-6.891l0.128 0.149z" />
<glyph unicode="&#xe90d;" glyph-name="profile-chat" d="M522.667 88.512c-50.901 0-26.112 0-80.683-0.277-65.621-0.32-122.304-52.075-149.909-130.901-73.707 78.955-149.141 199.552-180.352 282.411-31.232 82.88-47.723 132.971-47.723 263.168 0 228.885 205.355 414.421 458.667 414.421s458.667-185.536 458.667-414.421c0-228.864-205.355-414.4-458.667-414.4zM704 448c23.564 0 42.667 19.103 42.667 42.667s-19.103 42.667-42.667 42.667v0c-23.564 0-42.667-19.103-42.667-42.667s19.103-42.667 42.667-42.667v0zM512 448c23.564 0 42.667 19.103 42.667 42.667s-19.103 42.667-42.667 42.667v0c-23.564 0-42.667-19.103-42.667-42.667s19.103-42.667 42.667-42.667v0zM320 448c23.564 0 42.667 19.103 42.667 42.667s-19.103 42.667-42.667 42.667v0c-23.564 0-42.667-19.103-42.667-42.667s19.103-42.667 42.667-42.667v0z" />
<glyph unicode="&#xe90e;" glyph-name="profile-contact" d="M234.667-21.333v917.333h-42.667v-917.333h-21.333c-47.128 0-85.333 38.205-85.333 85.333v0 746.667c0 47.128 38.205 85.333 85.333 85.333v0h704c47.128 0 85.333-38.205 85.333-85.333v0-746.667c0-47.128-38.205-85.333-85.333-85.333v0h-640zM432.875 350.059c-15.147-10.155-27.541-32.853-27.541-50.453v-36.48c0-3.925 3.392-7.125 7.552-7.125h326.229c4.16 0 7.552 3.2 7.552 7.104v36.48c0 17.621-12.395 40.32-27.541 50.475 0 0-69.717 46.677-69.867 46.72-4.958 3.465-9.064 6.561-13.064 9.785l0.456-0.355c-4.436 3.426-8.207 7.435-11.277 11.959l-0.115 0.18c-1.888 3.532-3.159 7.668-3.554 12.057l-0.009 0.125c-0.363 4.117 0 8.299 0.853 12.395 1.984 11.2 9.835 21.376 16.277 30.827 0.683 1.024 1.216 2.176 1.856 3.243 1.323 2.261 2.709 4.48 3.84 6.912 0.299 0.619 0.491 1.28 0.789 1.899 1.259 2.901 2.517 5.867 3.52 8.875l0.192 0.661c2.347 7.147 4.011 14.485 5.035 21.547 0.661 4.309 1.024 8.448 1.024 12.245v44.309c0 5.077-0.789 10.453-2.261 15.872l-0.597 1.92c-0.803 2.546-1.563 4.561-2.412 6.528l0.172-0.448c-0.277 0.661-0.533 1.323-0.853 1.984-1.368 2.991-2.734 5.489-4.253 7.88l0.157-0.264c-3.684 5.413-7.895 10.084-12.657 14.125l-0.1 0.083c-1.771 1.493-3.328 3.136-5.291 4.523-12.373 8.597-29.077 14.357-50.987 14.357s-38.635-5.76-50.965-14.379c-2.005-1.387-3.563-3.008-5.333-4.523h0.021c-4.883-4.12-9.108-8.792-12.647-13.971l-0.153-0.237c-1.347-2.124-2.7-4.622-3.887-7.212l-0.166-0.404c-0.32-0.661-0.576-1.323-0.853-1.984-0.853-2.005-1.6-4.053-2.24-6.059l-0.597-1.92c-1.493-5.44-2.283-10.816-2.283-15.893v-44.288c0-3.797 0.384-7.936 1.024-12.245 1.045-7.061 2.709-14.4 5.056-21.547l0.171-0.64c1.024-3.029 2.261-5.973 3.541-8.896 0.277-0.619 0.491-1.28 0.768-1.899 1.152-2.411 2.517-4.651 3.84-6.912 0.64-1.067 1.173-2.219 1.856-3.243 6.443-9.451 14.315-19.627 16.277-30.827 0.896-4.096 1.237-8.277 0.853-12.373-0.384-4.519-1.65-8.664-3.625-12.376l0.084 0.173c-2.859-4.48-6.613-8.213-11.392-12.139-3.541-2.901-7.595-5.867-12.608-9.408-0.149-0.064-69.867-46.741-69.867-46.741z" />
<glyph unicode="&#xe90f;" glyph-name="file-mw" horiz-adv-x="1120" d="M1035.2 905.728c-40.408 33.769-92.916 54.274-150.214 54.274-64.338 0-122.637-25.854-165.076-67.739l0.025 0.025c-0.8-0.704-1.536-1.6-2.336-2.336l-534.208-534.208c-0.906-0.925-1.728-1.94-2.449-3.028l-0.047-0.076c-25.474-28.596-41.039-66.504-41.039-108.047 0-89.885 72.867-162.752 162.752-162.752 41.543 0 79.451 15.565 108.209 41.181l-0.163-0.142c1.153 0.754 2.156 1.533 3.091 2.385l-0.019-0.017 2.816 2.912 461.728 461.696c5.087 5.366 8.215 12.634 8.215 20.631 0 16.577-13.439 30.016-30.016 30.016-7.982 0-15.236-3.116-20.613-8.197l0.014 0.013-6.464-6.4-42.368-42.432-414.688-414.688c-18.377-17.336-43.22-27.99-70.552-27.99-56.837 0-102.912 46.075-102.912 102.912 0 27.3 10.63 52.117 27.977 70.539l-0.049-0.052 3.648 3.84 531.872 531.968c31.658 31.513 75.316 50.994 123.524 50.994 96.707 0 175.104-78.397 175.104-175.104 0-47.301-18.755-90.221-49.234-121.73l0.047 0.048-536-536.224c-1.082-0.956-2.066-1.96-2.973-3.030l-0.035-0.042c-44.058-44.206-105.003-71.558-172.336-71.558-134.372 0-243.302 108.93-243.302 243.302 0 67.039 27.113 127.745 70.972 171.751l-0.007-0.007 3.808 3.616 122.752 122.816 343.872 355.072c5.309 5.377 8.588 12.769 8.588 20.928 0 8.27-3.369 15.753-8.81 21.15l-0.002 0.002c-5.399 5.47-12.896 8.858-21.184 8.858-8.161 0-15.554-3.285-20.931-8.604l0.003 0.003-468.992-480.128c-118.24-121.408-115.68-313.344 4.256-430.144 54.562-53.171 129.203-85.966 211.504-85.966 82.285 0 156.913 32.782 211.537 85.998l-0.066-0.064 547.168 547.296c1.564 1.604 2.933 3.41 4.059 5.374l0.069 0.13c33.76 40.41 54.259 92.914 54.259 150.207 0 72.51-32.835 137.351-84.446 180.466l-0.373 0.303z" />
<glyph unicode="&#xe910;" glyph-name="empty-post" horiz-adv-x="1036" d="M802.909-64c-128 0-232.727 104.727-232.727 232.727s104.727 232.727 232.727 232.727 232.727-104.727 232.727-232.727-104.727-232.727-232.727-232.727zM802.909 366.545c-109.382 0-197.818-88.436-197.818-197.818s88.436-197.818 197.818-197.818 197.818 88.436 197.818 197.818-88.436 197.818-197.818 197.818zM896 161.745c0-8.145-8.145-15.127-16.291-15.127h-114.036l44.218-43.055c6.982-6.982 8.145-16.291 0-23.273-8.145-8.145-19.782-1.164-23.273-1.164l-70.982 69.818c-5.818 9.309-5.818 19.782 0 25.6l72.145 70.982c5.818 5.818 16.291 5.818 22.109 0s5.818-15.127 0-22.109l-45.382-44.218h114.036c9.309-1.164 17.455-6.982 17.455-17.455zM552.727-40.727h-429.382c-67.491 0-123.345 55.855-123.345 123.345v754.036c0 67.491 55.855 123.345 123.345 123.345h754.036c67.491 0 123.345-55.855 123.345-123.345v-417.745c0-9.309-8.145-17.455-17.455-17.455s-17.455 8.145-17.455 17.455v417.745c0 48.873-39.564 88.436-88.436 88.436h-754.036c-48.873 0-88.436-39.564-88.436-88.436v-754.036c0-48.873 39.564-88.436 88.436-88.436h429.382c9.309 0 17.455-8.145 17.455-17.455s-8.145-17.455-17.455-17.455zM226.909 669.091h546.909c9.309 0 17.455-8.145 17.455-17.455v0c0-9.309-8.145-17.455-17.455-17.455h-546.909c-9.309 0-17.455 8.145-17.455 17.455v0c0 9.309 8.145 17.455 17.455 17.455zM226.909 552.727h395.636c9.309 0 17.455-8.145 17.455-17.455v0c0-9.309-8.145-17.455-17.455-17.455h-395.636c-9.309 0-17.455 8.145-17.455 17.455v0c0 9.309 8.145 17.455 17.455 17.455zM226.909 436.364h302.545c9.309 0 17.455-8.145 17.455-17.455v0c0-9.309-8.145-17.455-17.455-17.455h-302.545c-9.309 0-17.455 8.145-17.455 17.455v0c0 9.309 8.145 17.455 17.455 17.455zM226.909 320h162.909c9.309 0 17.455-8.145 17.455-17.455v0c0-9.309-8.145-17.455-17.455-17.455h-162.909c-9.309 0-17.455 8.145-17.455 17.455v0c0 9.309 8.145 17.455 17.455 17.455z" />
<glyph unicode="&#xe911;" glyph-name="add-chat" d="M516.192 960c-227.808 0-403.008-125.792-468.608-336.192-60.384-193.6-45.408-481.184 96.992-675.584 5.6-7.808 14.592-12.192 24-12.192 0.992 0 1.792 0 2.816 0.192 10.4 0.992 19.584 7.392 24.192 16.992 13.792 28.608 53.792 80.192 96.8 95.008 25.792 8.992 51.616 12.992 84.192 12.992 19.008 0 38.816-1.408 59.808-2.784 24.992-1.6 50.816-3.392 80.416-3.392 294.4 0.192 492.608 172.992 493.184 443.808 0 0.992 0.192 2.592 0.192 3.392-0.192 273.792-198.592 457.792-494.016 457.792zM744 448h-196v-192h-72v192h-196v76h196v194.016h72v-194.016h196v-76z" />
<glyph unicode="&#xe912;" glyph-name="add02" d="M780 424h-244v-244h-36v244h-244v36h244v244h36v-244h244zM512 960c-282.016 0-512-230.016-512-512s230.016-512 512-512c282.016 0 512 230.016 512 512s-230.016 512-512 512z" />
<glyph unicode="&#xe913;" glyph-name="add04" d="M548 484h256v-74.016h-256v-256h-72v256h-256v74.016h256v256h72v-256zM1024 448c0-282.784-229.216-512-512-512s-512 229.216-512 512 229.184 512 512 512 512-229.184 512-512zM950.784 448c0 242.4-196.384 438.816-438.816 438.816s-438.816-196.416-438.816-438.816 196.384-438.784 438.816-438.784 438.816 196.384 438.816 438.816z" />
<glyph unicode="&#xe914;" glyph-name="album_arrow" d="M950.044 425.244v0c-28.444 28.444-56.889 28.444-79.644 5.689l-301.511-307.2v785.067c0 28.444-28.444 51.2-56.889 51.2h-5.689c-28.444 0-51.2-22.756-51.2-51.2v-773.689l-301.511 295.822c-22.756 17.067-51.2 17.067-73.956 0l-5.689-5.689c-22.756-22.756-22.756-56.889 0-73.956l398.222-398.222c11.378-11.378 22.756-17.067 39.822-17.067s28.444 5.689 39.822 17.067l398.222 398.222c22.756 17.067 22.756 51.2 0 73.956z" />
<glyph unicode="&#xe915;" glyph-name="album" d="M1024.192 868.992v-842.4c0-44-35.808-80.192-79.616-80.192h-795.808c-43.808 0-79.584 36-79.584 80.192v110.592h-33.6c-19.616 0-35.616 16.192-35.616 36s16 36 35.616 36h33.6v119.008h71.584v-71.2l157.184 153.6c20.608 18.016 51.616 18.016 72 0l81.184-82.784 190.208 201.792c20.608 18.016 51.616 18.016 72 0l239.2-272.608v580.8c0 22.208-17.792 40.192-39.808 40.192h-732.192c-22.016 0-39.808-18.016-39.808-40.192v-151.616h-105.216c-19.616 0-35.616 16.192-35.616 36s16 35.808 35.616 35.808h33.408v111.2c0 44 35.808 80.192 79.584 80.192h795.808c43.808 0 79.584-36.192 79.808-80.416zM35.616 424.192h105.216v167.008h-71.584v-95.2h-33.6c-19.616 0-35.616-16.192-35.616-36 0-19.584 16-35.808 35.616-35.808z" />
<glyph unicode="&#xe916;" glyph-name="arrow-next" d="M780 447l0.6-0.6-512.2-510.4-25 25 487.8 486-488 488 25.2 25 512.4-512.4-0.8-0.6z" />
<glyph unicode="&#xe917;" glyph-name="arrow-next2" d="M723.392 355.392l-0.8 0.8-420-420.192-90.208 90.016 420.192 420.192-422.816 423.008 90.816 90.784 513.792-513.792-91.008-90.784z" />
<glyph unicode="&#xe918;" glyph-name="articles" d="M512 916.384c258.784 0 468.384-209.792 468.384-468.384 0-258.784-209.792-468.384-468.384-468.384s-468.384 209.6-468.384 468.384c0 258.816 209.6 468.384 468.384 468.384zM512 960c-282.4 0-512-229.6-512-512s229.6-512 512-512 512 229.6 512 512c0 282.4-229.6 512-512 512v0zM512 286.784l-195.808-113.792 50.016 217.408-171.008 147.2 226.816 20.608 90.016 204.8 90.016-204.8 226.784-20.608-171.008-147.2 50.016-217.408-195.808 113.792z" />
<glyph unicode="&#xe919;" glyph-name="band-listicon" d="M955.808-64h-887.616c-31.2 0-68.192 36.992-68.192 68.192v887.616c0 31.2 36.992 68.192 68.192 68.192h887.392c31.392 0 68.384-36.992 68.384-68.192v-887.392c0-31.392-36.992-68.384-68.192-68.384zM955.808 891.808h-887.616v-580.192h887.392v580.192zM955.808 175.008h-887.616v-170.592h887.392v170.592z" />
<glyph unicode="&#xe91a;" glyph-name="band-logo02" d="M170.016 452.384v0.384c20 9.408 34.4 26.592 34.4 58.816 0 38.816-27.2 72.608-79.2 72.608h-87.808c-24.992-0.192-37.408-16.384-37.408-36.992v-200.192c0-20.8 12.416-36.992 37.408-36.992h88.992c49.216 0 85.408 25.408 85.408 79.392 0 32.608-13.792 54.592-41.792 63.008zM52 533.984h64.192c23.008 0 35.2-8.8 35.2-29.6 0-19.2-11.392-30.4-35.2-30.4h-64.192v60zM120 360h-68v68h68.8c23.808 0 37.408-12.384 37.408-34.016 0.192-22.016-12-34.016-38.208-34.016zM407.008 551.392c-9.408 25.792-28.8 38.016-52 38.016-22.592 0-42.208-12.192-51.616-38.016l-74.208-206.816c-4.608-13.408 1.184-29.792 14.816-34.784 13.6-5.408 29.184 1.6 34.816 15.2l21.408 63.008h108.992l21.408-63.008c4.608-13.792 20.992-20.384 34.816-14.784 13.184 4.992 19.616 21.6 14.816 34.4l-73.184 206.816zM316.384 436l32 93.6c0.8 2.816 3.2 4.992 6.592 4.992 3.2 0 5.408-2.208 6.208-4.992l31.616-93.6h-76.416zM748 559.616v-211.2c0-22.4-15.808-40.8-39.2-40.8-14.4 0-29.216 7.2-39.392 24.8l-107.008 185.6h-0.8c0.8-24 0.384-48.384 0.384-68v-115.616c0-15.2-11.392-27.808-26.592-27.808-14.4 0-27.392 12.992-27.392 27.808v207.2c0 25.408 16.992 44.8 43.2 44.8 13.6 0 28.8-4.992 39.008-22.592l104.192-179.808h0.8c-0.8 24-3.008 37.408-3.008 60.384v115.2c0 15.2 13.216 27.392 28 27.392 15.008 0 27.808-12 27.808-27.392zM1023.616 469.184c-4.608 67.808-44.608 114.816-129.184 114.816h-59.808c-25.408 0-40.608-14.592-40.608-36v-200.992c0-21.216 16-36.992 40.608-36.992h59.808c86.208 0 124.992 49.216 129.6 117.792 0.608 12.992 0.608 26.816-0.384 41.408zM970.016 428.8c-2.784-41.6-24.608-68.8-74.592-68.8h-45.408v174.016h45.408c51.2 0 72.608-28.608 75.008-72.192 0.384-9.408 0.384-22.016-0.384-32.992z" />
<glyph unicode="&#xe91b;" glyph-name="bandcolor" d="M230.016 285.984c-10.016-8-16-20-22.016-30.016v0c-60-128-208-122.016-208-122.016s282.016-168 420-36c16 16 32 30.016 36 52l-164 164c-24-2.016-46.016-12-62.016-28zM1010.016 833.984h-2.016c-24 24-60 16-82.016-4l-594.016-474.016 168-168 504 564c20 22.016 30.016 56 6.016 82.016z" />
<glyph unicode="&#xe91c;" glyph-name="bandhome" d="M918.016 960h-812c-58.016 0-106.016-48-106.016-106.016v-812c0-58.016 48-106.016 106.016-106.016h812c58.016 0 106.016 48 106.016 106.016v812c0 58.016-48 106.016-106.016 106.016zM106.016 896h812c22.016 0 42.016-20 42.016-42.016v-534.016h-896v534.016c0 22.016 20 42.016 42.016 42.016zM918.016 0h-812c-22.016 0-42.016 20-42.016 42.016v150.016h896v-150.016c0-22.016-20-42.016-42.016-42.016z" />
<glyph unicode="&#xe91d;" glyph-name="birth" d="M724 857.984l46.016 26.016 18.016 60-50.016 16-12-42.016-42.016-24-24-52 48-22.016zM548 857.984l46.016 26.016 18.016 60-50.016 16-12-42.016-44-24-22.016-52 48-22.016zM350.016 857.984l44 26.016 20 60-50.016 16-14.016-42.016-42.016-24-22.016-52 48-22.016zM822.016 588h-88v186.016h-46.016v-186.016h-140v186.016h-48v-186.016h-140v186.016h-48v-186.016h-116c-64 0-118.016-54.016-118.016-118.016v-176c0-24 14.016-44 38.016-44 2.016 0 8-2.016 8-2.016v-264c0-26.016 26.016-48 52-48h676c26.016 0 46.016 22.016 46.016 48l2.016 266.016c0 0 4 0 6.016 0 26.016 0 40 20 40 46.016v174.016c0 66.016-58.016 118.016-124 118.016zM852-8c0-4-4-8-8-8h-664c-4 0-8 4-8 8v274.016l58.016 44c20 20 52 20 72 0l38.016-38.016c18.016-18.016 26.016-28 52-28s40 10.016 58.016 28l32 38.016c22.016 20 42.016 20 62.016 0l38.016-38.016c18.016-18.016 42.016-28 68-28s30.016 10.016 48 28l38.016 38.016c22.016 20 58.016 20 80 0l36-44v-274.016zM898.016 297.984c0-6.016-4-8-6.016-8s-4 2.016-4 2.016l-48 46.016c-18.016 18.016-40 26.016-66.016 26.016s-48-10.016-66.016-26.016l-38.016-38.016c-22.016-22.016-40-22.016-60 0l-38.016 38.016c-18.016 18.016-32 26.016-58.016 26.016-24 0-40-10.016-58.016-26.016l-38.016-38.016c-22.016-22.016-28-22.016-48 0l-38.016 38.016c-18.016 18.016-38.016 26.016-64 26.016-24 0-46.016-4-64-20l-68-52c0-2.016-2.016-2.016-4-2.016s-6.016 0-6.016 6.016v168c0 42.016 38.016 78.016 82.016 78.016h610.016c42.016 0 80-34.016 80-76v-168z" />
<glyph unicode="&#xe91e;" glyph-name="birth02" d="M747.808 882.784l33.792 19.2 14.208 46.208-37.792 11.808-9.6-31.2-31.392-18.016-17.6-39.2 35.808-16.192 12.608 27.392zM531.808 882.784l33.792 19.2 14.208 46.208-37.6 11.808-9.6-31.2-31.392-18.016-17.6-39.2 35.808-16.192 12.384 27.392zM295.008 882.784l33.792 19.2 14.208 46.208-37.6 11.808-9.6-31.2-31.392-18.016-17.6-39.2 35.808-16.192 12.384 27.392zM842.4 604.8h-90.4v209.408h-62.784v-209.408h-146.4v209.408h-61.6v-209.408h-147.2v209.408h-62.816v-209.408h-89.6c-65.6 0-118.784-53.6-118.784-119.584v-182.784c0-25.6 12.992-46.4 38.4-46.4 0.992 0 2.016 0.192 3.008 0.384v-272c0-26.592 21.6-48.192 48-48.192h719.008c26.4 0 48 21.6 48 48.192v272c0.992 0 2.016-0.384 3.008-0.384 25.6 0 39.2 20.8 39.2 46.592v182.816c-0.192 65.792-53.408 119.392-119.008 119.392zM847.616-1.408h-672c-4.8 0-8.608 3.808-8.608 8.608v266.016l32.192 44.192c21.408 21.6 58.816 21.6 80.192 0l28.192-39.008c18.208-18.208 42.208-28.384 68-28.384 25.6 0 49.792 10.016 68 28.384l38.816 39.008c21.408 21.6 58.816 21.6 80.192 0l38.784-39.008c18.208-18.208 42.208-28.384 68-28.384 25.6 0 28.8 10.016 47.008 28.384l28.992 39.008c21.408 21.6 58.784 21.6 80.192 0l30.784-44.8v-265.408c-0.192-4.8-4-8.608-8.8-8.608z" />
<glyph unicode="&#xe91f;" glyph-name="bolg-bg" d="M862.016 877.984h-700c-90.016 0-162.016-72-162.016-162.016v-384c0-90.016 72-162.016 162.016-162.016h242.016l82.016-136c0 0 0 0 2.016-2.016 4-10.016 14.016-14.016 24-14.016s18.016 4 24 12c2.016 4 2.016 4 2.016 4l82.016 136h242.016c90.016 0 162.016 72 162.016 162.016v384c0 90.016-72 162.016-162.016 162.016z" />
<glyph unicode="&#xe920;" glyph-name="bolg-text" d="M148 576c0 0-36 0-68-30.016v126.016h-80v-334.016h80v26.016c0 0 20-34.016 68-34.016 0 0 114.016 4 114.016 124 0 0-4 122.016-114.016 122.016zM130.016 400c-28 0-50.016 24-50.016 52s22.016 52 50.016 52c30.016 0 52-24 52-52s-22.016-52-52-52zM286.016 680v-78.016c0 0 38.016 2.016 38.016-66.016v-198.016h76v216c0 0 4 126.016-114.016 126.016zM590.016 576c0 0-132 0-132-124 0 0-6.016-122.016 132-122.016 0 0 136 0 136 122.016 0 0 4 124-136 124zM590.016 400c-28 0-52 24-52 52s24 52 52 52c28 0 52-24 52-52s-24-52-52-52zM946.016 568v-22.016c0 0-22.016 30.016-68 30.016 0 0-112 4-112-124 0 0-2.016-118.016 110.016-118.016 0 0 46.016-2.016 70.016 30.016v-18.016c0 0 6.016-58.016-50.016-58.016h-20v-72h30.016c0 0 118.016 0 118.016 126.016v226.016zM898.016 400c-28 0-52 24-52 52s24 52 52 52c28 0 52-24 52-52s-24-52-52-52z" />
<glyph unicode="&#xe921;" glyph-name="btn-add-file2" d="M448.992 959.008v-448h-448v-128h448v-448h128v448h448v128h-448v448h-128z" />
<glyph unicode="&#xe922;" glyph-name="btn-check" d="M356.8 48.608l-0.608-0.8-356.192 311.616 88 100.608 259.008-226.592 576.384 614.784 100.608-88-667.2-711.616z" />
<glyph unicode="&#xe923;" glyph-name="cal-attendance" d="M682.91 472.381c-0.094 0-0.206 0-0.317 0-80.751 0-146.213 65.462-146.213 146.213 0 0.026 0 0.052 0 0.078v-0.004c0 0.011 0 0.024 0 0.037 0 80.805 65.505 146.31 146.31 146.31 5.833 0 11.586-0.341 17.241-1.005l-0.686 0.066c66.682-7.144 121.271-61.757 128.731-128.268 0.667-5.241 1.048-11.304 1.048-17.457 0-80.616-65.352-145.969-145.969-145.969-0.051 0-0.102 0-0.153 0h0.008zM317.196 472.381c-0.094 0-0.206 0-0.317 0-80.751 0-146.213 65.462-146.213 146.213 0 0.026 0 0.052 0 0.078v-0.004c0 0.011 0 0.024 0 0.037 0 80.805 65.505 146.31 146.31 146.31 5.833 0 11.586-0.341 17.241-1.005l-0.686 0.066c66.682-7.144 121.271-61.757 128.731-128.268 0.667-5.241 1.048-11.304 1.048-17.457 0-80.616-65.352-145.969-145.969-145.969-0.051 0-0.102 0-0.153 0h0.008zM697.954 392.582h9.094c108.446 0 316.709-54.467 316.709-162.914v-58.49c0-31.939-16.555-64.512-48.518-64.512h-268.19c8.728 17.506 17.725 43.642 17.725 64.512v58.514c0 45.446-19.261 105.691-100.937 156.526 27.258 4.194 52.809 6.363 74.118 6.363zM511.878 358.229l15.287-6.656c75.776-26.99 131.121-63.098 131.121-121.905v-49.859c0-31.963-41.204-73.143-73.143-73.143h-512c-31.963 0-73.143 32.549-73.143 64.512v58.514c0 108.446 217.356 162.889 325.803 162.889 49.664 0 122.075-11.557 186.075-34.353z" />
<glyph unicode="&#xe924;" glyph-name="cal-notice" d="M804.571 252.952v254.44c0 145.847-71.046 267.947-206.921 300.276v32.305c0 0.022 0 0.047 0 0.073 0 39.318-31.874 71.192-71.192 71.192-0.026 0-0.051 0-0.077 0h0.004c-0.022 0-0.047 0-0.073 0-39.318 0-71.192-31.874-71.192-71.192 0-0.026 0-0.051 0-0.077v0.004-32.305c-136.363-32.305-211.31-153.941-211.31-300.276v-254.44l-97.524-78.141v-43.764h755.81v43.764l-97.524 78.141zM609.524 82.286h-170.667c0-52.273 34.792-97.524 87.528-97.524 52.248 0 83.139 45.251 83.139 97.524z" />
<glyph unicode="&#xe925;" glyph-name="cal-repeat" d="M731.429 886.857c0 16.994 3.072 60.44 17.554 60.44 6.924 0 13.995-2.609 19.724-8.314l137.826-162.231c5.107-5.098 8.267-12.146 8.267-19.931s-3.16-14.834-8.267-19.931v0l-137.801-142.604c-17.749-17.749-37.278-0.731-37.278 24.381v97.524h-512.024c-15.555 0-24.381-8.509-24.381-24.088v-170.959c0-15.579-8.777-24.381-24.381-24.381h-48.762c-15.579 0-24.381 8.802-24.381 24.381v268.19c0 15.579 8.802 24.381 24.381 24.381h609.524v73.143zM755.81 399.238h48.762c15.579 0 24.381-8.802 24.381-24.381v-255.61c0-12.581-24.381-12.581-24.381-12.581h-609.524v-97.524c0-25.112-19.578-42.155-37.352-24.381l-137.777 134.485c-5.096 5.103-8.247 12.149-8.247 19.931s3.151 14.828 8.247 19.932v0l137.752 162.182c17.822 17.749 37.376 5.534 37.376-19.578v-121.905c-0.658 16.262-0.658 24.381 0 24.381h512c15.579 0 24.381 8.826 24.381 24.381v139.752c0 15.604 8.802 30.915 24.381 30.915z" />
<glyph unicode="&#xe926;" glyph-name="cal-share" d="M659.237 850.213c7.55 7.576 17.994 12.264 29.533 12.264 0.023 0 0.046 0 0.069 0h-0.004c10.728 0 21.406-4.072 29.598-12.239l98.255-98.255c16.335-16.335 16.335-42.837 0-59.197l-76.824-76.849-157.477 157.477 76.873 76.8zM87.674 278.577l449.829 449.853 157.428-157.428-449.853-449.829c-9.265-9.314-21.87-14.531-35.011-14.531h-87.381c-27.353 0-49.528 22.167-49.542 49.516v87.382c0 13.141 5.218 25.746 14.531 35.011zM438.857 106.667h487.619c26.93 0 48.762-21.831 48.762-48.762s-21.831-48.762-48.762-48.762h-487.619c-26.93 0-48.762 21.831-48.762 48.762s21.831 48.762 48.762 48.762z" />
<glyph unicode="&#xe927;" glyph-name="cal-time" d="M512 960v0c-282.77 0-512-229.23-512-512s229.23-512 512-512c282.77 0 512 229.23 512 512v0c0 282.77-229.23 512-512 512-0.204 0-0.408 0-0.612 0h0.032zM750.18 269.8l-3.187-5.216c-6.033-9.925-16.787-16.453-29.067-16.453-6.263 0-12.129 1.698-17.164 4.66l0.159-0.086-223.692 134.157c-9.924 6.004-16.468 16.72-16.516 28.969v254.413s0 0 0 0c0.163 18.439 15.149 33.323 33.611 33.323 0.102 0 0.205 0 0.307-0.001h9.836c0 0 0.001 0 0.001 0 18.461 0 33.446-14.884 33.61-33.306v-215.595c0.048-12.256 6.592-22.972 16.365-28.891l0.151-0.085 184.575-109.528c9.692-6.011 16.050-16.593 16.050-28.659 0-6.555-1.876-12.672-5.121-17.842l0.082 0.14z" />
<glyph unicode="&#xe928;" glyph-name="calendar-down" d="M1024 653.984l-478.016-464c-18.016-20-50.016-20-68 0l-478.016 464 68 66.016 444-430.016 444 430.016z" />
<glyph unicode="&#xe929;" glyph-name="calendar-event" d="M734.016 748h-74.016v-74.016h74.016zM626.016 908l-52 52-52-52 52-52zM906.016 501.984v-74.016h74.016v74.016zM384 725.984c-24 0-46.016-4-62.016-16-6.016-4-10.016-8-14.016-12-8-8-16-18.016-20-30.016l-240-668c-6.016-14.016-4-30.016 6.016-44 8-12 22.016-20 38.016-20 6.016 0 12 0 16 2.016l664 240c2.016 0 4 0 4 2.016h2.016c2.016 2.016 4 2.016 6.016 4 4 0 6.016 2.016 10.016 4 6.016 4 10.016 8 14.016 12 4 2.016 6.016 8 10.016 12 50.016 74.016-10.016 224-142.016 356-98.016 98.016-210.016 158.016-292 158.016zM96-26.016c-2.016 0-2.016 0-4 0s-6.016 2.016-8 4c-2.016 2.016-2.016 6.016-2.016 10.016l208 574.016c20-70.016 72-154.016 150.016-232 76-76 160-128 230.016-148zM788 233.984c-2.016-4-4-6.016-6.016-8-4-2.016-6.016-4-8-6.016s-4-2.016-6.016-4c-2.016 0-4 0-4-2.016l-6.016-2.016c-60-16-176 30.016-292 146.016-116 114.016-162.016 232-144 292l2.016 4c0 2.016 0 2.016 0 2.016 2.016 4 2.016 6.016 4 8 2.016 4 4 6.016 6.016 8s6.016 4 8 6.016c10.016 8 24 12 42.016 12 72 0 176-58.016 266.016-150.016 126.016-126.016 170.016-258.016 138.016-306.016zM586.016 353.984h74.016v74.016h-74.016zM970.016 709.984l-52 54.016-52-54.016 52-52z" />
<glyph unicode="&#xe92a;" glyph-name="calendar-up" d="M956 176l-444 430.016-444-430.016-68 66.016 478.016 464c18.016 20 50.016 20 68 0l478.016-464z" />
<glyph unicode="&#xe92b;" glyph-name="calendar" d="M948.384-64h-872.8c-35.2 0-64 28.8-64 64.192v824.992c0 35.392 28.608 64.192 64 64.192h151.008v70.592h70.592v-70.784h428.8v70.784h72v-70.784h150.4c35.2 0 64-28.8 64-64.192v-824.992c0-35.2-28.8-64-64-64zM940.992 604h-858.592v-596.992h858.592v596.992zM296.192 412.384h-70.592v71.616h70.592v-71.616zM296.192 269.6h-70.592v70.784h70.592v-70.784zM296.192 127.008h-70.592v70.208h70.592v-70.208zM463.808 412.384h-70.592v71.616h70.592v-71.616zM463.808 269.6h-70.592v70.784h70.592v-70.784zM463.808 127.008h-70.592v70.208h70.592v-70.208zM631.008 412.384h-71.392v71.616h71.392v-71.616zM631.008 269.6h-71.392v70.784h71.392v-70.784zM631.008 127.008h-71.392v70.208h71.392v-70.208zM797.6 412.384h-71.392v71.616h71.392v-71.616zM797.6 269.792h-71.392v70.784h71.392v-70.784z" />
<glyph unicode="&#xe92c;" glyph-name="camera-bg" d="M942.016 756h-168l-66.016 112h-388l-66.016-112h-172c-46.016 0-82.016-36-82.016-82.016v-564c0-46.016 36-82.016 82.016-82.016h860c46.016 0 82.016 36 82.016 82.016v564c0 46.016-36 82.016-82.016 82.016z" />
<glyph unicode="&#xe92d;" glyph-name="camera" d="M978.016 736h-198.016l-72 124h-388l-72-124h-202.016c-26.016 0-46.016-28-46.016-60v-580c0-32 20-60 46.016-60h932c26.016 0 46.016 28 46.016 60v580c0 32-20 60-46.016 60zM184 497.984c-32 0-58.016 26.016-58.016 56 0 32 26.016 56 58.016 56 30.016 0 56-24 56-56 0-30.016-26.016-56-56-56zM514.016 189.984c-126.016 0-226.016 102.016-226.016 226.016s100 226.016 226.016 226.016c124 0 226.016-102.016 226.016-226.016s-102.016-226.016-226.016-226.016zM514.016 557.984c-78.016 0-142.016-64-142.016-142.016s64-142.016 142.016-142.016c78.016 0 142.016 64 142.016 142.016s-64 142.016-142.016 142.016z" />
<glyph unicode="&#xe92e;" glyph-name="chat-golist" d="M942.016 437.984v416c0 58.016-48 106.016-106.016 106.016h-728c-60 0-108-48-108-106.016v-768c0-60 48-108 108-108h462.016c46.016-26.016 98.016-42.016 154.016-42.016 166.016 0 300 134.016 300 298.016 0 80-32 152-82.016 204zM64 873.984c0 12 10.016 22.016 22.016 22.016h770.016c12 0 22.016-10.016 22.016-22.016v-384c-44 28-98.016 44-154.016 44-144 0-264-102.016-292-236h-368zM86.016 41.984c-12 0-22.016 10.016-22.016 22.016v106.016h368c10.016-48 32-90.016 62.016-128zM724 0c-130.016 0-236 106.016-236 234.016 0 130.016 106.016 236 236 236s236-106.016 236-236c0-128-106.016-234.016-236-234.016zM702.016 356l96-100h-224v-42.016h224l-96-100 28-28 144 148-144 150.016z" />
<glyph unicode="&#xe92f;" glyph-name="chat-img-report" d="M512 960c-282.816 0-512-229.184-512-512s229.184-512 512-512 512 229.216 512 512-229.216 512-512 512zM856.992 103.008c-44.8-44.8-96.992-80-155.2-104.608-60.192-25.408-124-38.4-190.016-38.4-65.792 0-129.792 12.8-190.016 38.4-58.208 24.608-110.208 59.808-155.2 104.608-44.8 44.8-80 96.992-104.608 155.2-25.408 60.192-38.4 124-38.4 190.016 0 65.792 12.8 129.792 38.4 190.016 24.608 58.208 59.808 110.208 104.608 155.2 44.8 44.8 96.992 80 155.2 104.608 60.192 25.408 124 38.4 190.016 38.4 65.792 0 129.792-12.8 190.016-38.4 58.208-24.608 110.208-59.808 155.2-104.608 44.8-44.8 80-96.992 104.608-155.2 25.408-60.192 38.4-124 38.4-190.016 0-65.792-12.8-129.792-38.4-190.016-24.608-58.208-59.808-110.4-104.608-155.2zM722.208 320h-420.384c-25.184 0-45.792-20.384-45.792-45.792s20.384-45.792 45.792-45.792h420.608c25.216 0 45.792 20.384 45.792 45.792s-20.608 45.792-46.016 45.792zM712.992 518.4c0 112.608-89.408 204-200.992 204s-200.992-91.392-200.992-204v-161.408h402.016v161.408zM512 594.208c0 0-73.184 18.4-73.184-91.392h-36.608c0 0-14.208 128 109.792 128v-36.608z" />
<glyph unicode="&#xe930;" glyph-name="chat-member" d="M882.016 185.984l-180 124c-14.016 10.016-24 18.016-34.016 26.016-14.016 12-22.016 22.016-28 32-2.016 0-2.016 2.016-2.016 2.016-6.016 12-8 24-10.016 36 0 10.016 0 22.016 2.016 36 6.016 26.016 22.016 52 38.016 74.016l6.016 10.016c0 0 0 2.016 2.016 4l2.016 4c4 6.016 8 12 10.016 18.016l2.016 2.016c2.016 10.016 6.016 18.016 10.016 28 4 18.016 10.016 36 12 56 2.016 12 2.016 22.016 2.016 32v118.016c0 14.016-2.016 26.016-6.016 40v6.016c-2.016 6.016-4 10.016-6.016 18.016l-2.016 4c-4 6.016-6.016 12-10.016 18.016-4 8-10.016 14.016-16 20-4 6.016-10.016 12-16 18.016l-4 2.016c-4 4-6.016 6.016-10.016 8-34.016 26.016-84 38.016-134.016 38.016s-96-12-130.016-38.016c-4-2.016-6.016-4-8-6.016l-4-4c-8-6.016-14.016-12-18.016-18.016-6.016-6.016-12-12-16-20-4-6.016-6.016-12-10.016-20l-2.016-4c-2.016-6.016-4-10.016-6.016-18.016v-4c-4-14.016-6.016-26.016-6.016-40v-118.016c0-10.016 0-20 2.016-32 2.016-20 8-40 14.016-58.016 2.016-8 6.016-16 8-24l2.016-6.016c2.016-4 6.016-10.016 10.016-16l2.016-4c0-2.016 2.016-4 2.016-6.016l6.016-8c16-22.016 34.016-48 38.016-76 2.016-12 2.016-24 2.016-34.016-2.016-12-4-24-8-32 0-2.016-2.016-2.016-2.016-4-8-12-16-22.016-30.016-34.016-10.016-8-20-16-34.016-24l-180-126.016c-38.016-26.016-70.016-84-70.016-130.016v-90.016c0-16 14.016-30.016 32-30.016h816c18.016 0 32 14.016 32 30.016v90.016c0 46.016-32 104-70.016 130.016z" />
<glyph unicode="&#xe931;" glyph-name="chat-off" d="M516 960c-226.016 0-402.016-122.016-468-328-60-190.016-48-494.016 96-684 4-8 14.016-12 24-12 0 0 2.016 0 2.016 0 10.016 2.016 20 8 24 16 14.016 28 56 90.016 98.016 106.016 26.016 8 52 12 84 12 20 0 40-2.016 60-2.016 26.016-2.016 52-4 80-4 294.016 0 492 180 494.016 444 0 2.016 0 4 0 4 0 268-198.016 448-494.016 448zM940 509.984c0-230.016-166.016-378.016-424-378.016-26.016 0-50.016 0-74.016 2.016-22.016 2.016-42.016 2.016-62.016 2.016-38.016 0-70.016-4-102.016-14.016-44-16-82.016-58.016-104-92-100 168-112 418.016-60 580 56 176 206.016 280 402.016 280 258.016 0 424-148 424-376 0-2.016 0-4 0-4zM288 548c-28 0-52-22.016-52-52 0-28 24-52 52-52 30.016 0 52 24 52 52 0 30.016-22.016 52-52 52zM522.016 548c-30.016 0-52-22.016-52-52 0-28 22.016-52 52-52 28 0 52 24 52 52 0 30.016-24 52-52 52zM756 548c-30.016 0-52-22.016-52-52 0-28 22.016-52 52-52 28 0 52 24 52 52 0 30.016-24 52-52 52z" />
<glyph unicode="&#xe932;" glyph-name="chat-off02" d="M516.384 960c-221.792 0-392.384-123.008-456.192-328.8-58.784-189.408-46.4-493.184 92.192-683.2 5.6-7.616 14.208-12 23.392-12 0.8 0 1.792 0 2.592 0.192 10.208 0.992 19.008 7.2 23.392 16.608 13.408 28 54.592 90.208 96.416 104.8 24.992 8.8 50.4 12.608 82.016 12.608 18.4 0 37.792-1.216 58.208-2.592 24.192-1.6 49.408-3.2 78.208-3.2 286.592 0.192 479.616 179.616 480 444.384 0 0.992 0.192 2.4 0.192 3.392 0.384 267.808-192.8 447.808-480.384 447.808zM916.192 509.408c-0.384-223.392-157.408-367.808-400-367.808-25.184 0-48.192 1.6-70.208 3.008-20.192 1.408-39.392 2.592-58.592 2.592-36.384 0-65.792-4.608-95.392-15.008-43.2-15.008-78.016-56.608-99.392-88.192-94.592 161.6-104.416 405.6-55.808 562.4 52.8 170.816 194.816 272.8 380 272.992 242.784 0 399.808-144.8 399.808-366.592-0.192-0.992-0.384-2.4-0.384-3.392zM350.4 501.984c0-29.792-24.192-54.016-54.016-54.016s-54.016 24.192-54.016 54.016 24.192 54.016 54.016 54.016 54.016-24.192 54.016-54.016zM566.016 501.984c0-29.792-24.192-54.016-54.016-54.016s-54.016 24.192-54.016 54.016 24.192 54.016 54.016 54.016c29.792 0 54.016-24.192 54.016-54.016zM781.6 501.984c0-29.792-24.192-54.016-54.016-54.016s-54.016 24.192-54.016 54.016 24.192 54.016 54.016 54.016c29.792 0 54.016-24.192 54.016-54.016z" />
<glyph unicode="&#xe933;" glyph-name="chat-on" d="M518.016 960c-234.016 0-414.016-122.016-482.016-328-64-192-50.016-502.016 98.016-694.016 2.016-2.016 2.016-2.016 4-2.016v0c2.016 0 2.016 0 4 2.016 14.016 28 64 104 124 124 30.016 10.016 62.016 16 100 16 20 0 42.016-2.016 66.016-4 26.016-2.016 54.016-2.016 86.016-2.016 302.016 0 506.016 176 506.016 440v4c0 266.016-204 444-506.016 444zM270.016 420c-38.016 0-70.016 32-70.016 70.016 0 40 32 72 70.016 72 40 0 72-32 72-72 0-38.016-32-70.016-72-70.016zM526.016 420c-38.016 0-70.016 32-70.016 70.016 0 40 32 72 70.016 72 40 0 72-32 72-72 0-38.016-32-70.016-72-70.016zM782.016 420c-38.016 0-70.016 32-70.016 70.016 0 40 32 72 70.016 72 40 0 72-32 72-72 0-38.016-32-70.016-72-70.016z" />
<glyph unicode="&#xe934;" glyph-name="chat-transmit" d="M1024.992 20.384l-85.408-85.408-853.216 853.408v-768h-85.408v938.592h938.592v-85.408h-768l853.408-853.216z" />
<glyph unicode="&#xe935;" glyph-name="check-box-on" d="M512 960c-282.816 0-512-229.184-512-512s229.184-512 512-512c282.784 0 512 229.216 512 512s-229.216 512-512 512zM782.592 620l-282.592-367.808c-8.192-8.192-19.616-10.784-30.4-8.8-9.184-0.384-18.4 2.784-25.408 9.792l-178.592 200.992c-13.408 13.408-13.408 35.2 0 48.608s35.008 13.408 48.384 0l156.608-176.992 263.392 342.816c13.408 13.408 35.008 13.408 48.384 0 13.6-13.6 13.6-35.2 0.192-48.608z" />
<glyph unicode="&#xe936;" glyph-name="check-box-sel" d="M199.2 608.384l-53.792-50.4 308.8-351.008c7.808-8.608 19.008-13.6 30.592-13.6 0.384 0 0.992 0 1.408 0 12.192 0.384 23.616 6.208 31.008 15.808l506.784 659.616-63.392 48.992-478.016-631.392-283.392 322.016zM993.792 617.792l-45.216-58.592c8.8-35.392 13.216-71.808 13.216-108.992 0-61.184-12-120.192-35.392-176-22.784-53.792-55.392-102.208-96.8-143.616s-89.792-74.208-143.616-96.8c-55.808-23.808-115.008-35.808-176-35.808s-120.192 12-176 35.392c-53.792 22.784-102.208 55.392-143.584 96.8s-74.208 90.016-96.992 143.808c-23.392 55.808-35.392 115.008-35.392 176s12 120.192 35.392 176c22.784 53.792 55.392 102.208 96.8 143.584s89.792 74.208 143.584 96.8c56 23.616 115.2 35.616 176.192 35.616s120.192-12 176-35.392c17.408-7.392 34.208-15.808 50.4-25.216l36.992 47.616c-76.992 46.4-167.008 72.992-263.392 72.992-282.816 0-512-229.184-512-512s229.184-512 512-512 512 229.216 512 512c0 58.816-10.016 115.2-28.192 167.808z" />
<glyph unicode="&#xe937;" glyph-name="comment-off" d="M640 476c-24 0-42.016-18.016-42.016-42.016s18.016-44 42.016-44c24 0 42.016 20 42.016 44s-18.016 42.016-42.016 42.016zM1008 480l-126.016 96v154.016c0 66.016-42.016 118.016-108 118.016h-656c-64 0-118.016-52-118.016-118.016v-564c0-66.016 54.016-118.016 118.016-118.016h656c66.016 0 108 52 108 118.016v158.016l126.016 96c10.016 6.016 16 18.016 16 30.016s-6.016 24-16 30.016zM842.016 369.984c-12-6.016-18.016-18.016-18.016-32v-180c0-26.016-28-54.016-54.016-54.016h-660c-24 0-54.016 28-54.016 54.016v580c0 26.016 30.016 54.016 54.016 54.016h660c26.016 0 54.016-28 54.016-54.016v-176c0-12 6.016-24 18.016-32l120-80zM440 476c-22.016 0-42.016-18.016-42.016-42.016s20-44 42.016-44c24 0 44 20 44 44s-20 42.016-44 42.016zM242.016 476c-24 0-42.016-18.016-42.016-42.016s18.016-44 42.016-44c24 0 42.016 20 42.016 44s-18.016 42.016-42.016 42.016z" />
<glyph unicode="&#xe938;" glyph-name="comment-on" d="M1014.016 464l-130.016 92v228c0 46.016-40 82.016-88 82.016h-708c-48 0-88-36-88-82.016v-672c0-46.016 40-82.016 88-82.016h708c48 0 88 36 88 82.016v228l130.016 92c14.016 8 14.016 24 0 32zM180 377.984c-38.016 0-70.016 32-70.016 70.016s32 70.016 70.016 70.016c40 0 70.016-32 70.016-70.016s-30.016-70.016-70.016-70.016zM440 377.984c-38.016 0-70.016 32-70.016 70.016s32 70.016 70.016 70.016c38.016 0 70.016-32 70.016-70.016s-32-70.016-70.016-70.016zM700 377.984c-38.016 0-70.016 32-70.016 70.016s32 70.016 70.016 70.016c38.016 0 70.016-32 70.016-70.016s-32-70.016-70.016-70.016z" />
<glyph unicode="&#xe939;" glyph-name="delete" d="M764 17.984c0-2.016-2.016-2.016-4-2.016h-496c-2.016 0-4 0-4 2.016v634.016h-80v-634.016c0-46.016 38.016-82.016 84-82.016h496c46.016 0 84 36 84 82.016v634.016h-80zM880 857.984h-266.016v36c0 36-30.016 66.016-66.016 66.016h-72c-36 0-66.016-30.016-66.016-66.016v-34.016h-266.016c-36 0-66.016-28-66.016-66.016v-38.016h868v38.016c0 38.016-30.016 64-66.016 64zM394.016 89.984c4 0 6.016 2.016 8 4s4 4 4 6.016v552h-70.016v-552c0-2.016 2.016-4 4-6.016s4-4 8-4zM536 89.984c2.016 0 6.016 2.016 8 4s2.016 4 2.016 6.016v552h-68v-552c0-2.016 0-4 2.016-6.016s6.016-4 8-4zM676 89.984c4 0 6.016 2.016 8 4s4 4 4 6.016v552h-70.016v-552c0-2.016 2.016-4 4-6.016s4-4 8-4z" />
<glyph unicode="&#xe93a;" glyph-name="download" d="M512 108c14.016 0 28 6.016 38.016 16l368 372-30.016 30.016-354.016-358.016v792h-44v-792l-354.016 358.016-30.016-30.016 368-372c10.016-10.016 24-16 38.016-16zM66.016-22.016v-42.016h892v42.016z" />
<glyph unicode="&#xe93b;" glyph-name="etc-album" d="M88 453.984v172h-44v-156h-44v-44h66.016c16 0 22.016 12 22.016 28zM960 960h-854.016c-34.016 0-60-28-60-64v-158.016h-46.016v-46.016h70.016c16 0 20 14.016 20 30.016v188c0 4 2.016 6.016 6.016 6.016h878.016c2.016 0 6.016-2.016 6.016-6.016v-556l-338.016 288c-24 20-58.016 20-80 0l-184-162.016-48 42.016c-22.016 20-30.016 20-52 0l-222.016-212c-6.016-4-12-12-12-20v-132h-44v-44h64c16 0 24 12 24 28v134.016l216 204h4l216-204 36 44-132 128 172 154.016h4l376-324v-288c0-4-4-10.016-6.016-10.016h-880c-4 0-6.016 6.016-6.016 10.016v80h-44v-72c0-36 30.016-62.016 64-62.016h852c36 0 64 26.016 64 62.016v898.016c0 36-28 64-64 64z" />
<glyph unicode="&#xe93c;" glyph-name="etc-event" d="M976 912h-122.016v48h-50.016v-48h-584v48h-50.016v-48h-122.016c-26.016 0-48-22.016-48-48v-880c0-26.016 22.016-48 48-48h928c26.016 0 48 22.016 48 48v880c0 26.016-22.016 48-48 48zM48 864h122.016v-74.016h50.016v74.016h584v-74.016h50.016v74.016h122.016v-148h-928zM48-16v684h928v-684zM780 473.984h48v48h-48zM196 473.984h48v48h-48zM390.016 473.984h48v48h-48zM586.016 473.984h48v48h-48zM780 301.984h48v48h-48zM196 301.984h48v48h-48zM390.016 301.984h48v48h-48zM586.016 301.984h48v48h-48zM196 132h48v48h-48zM390.016 132h48v48h-48zM586.016 132h48v48h-48z" />
<glyph unicode="&#xe93d;" glyph-name="etc-event02" d="M952.384 901.984h-144.384v58.016h-88v-58.016h-414.016v58.016h-88v-58.016h-144.416c-32.384 0-59.616-26.592-59.616-59.008v-847.808c0-32.192 27.2-59.2 59.616-59.2h879.008c32.192 0 59.616 27.008 59.616 59.2v847.808c-0.192 32.416-27.392 59.008-59.808 59.008zM218.016 813.984v-58.016h88v58.016h414.016v-58.016h88v58.016h115.2v-146.016h-821.216v146.016h116zM102.016 24v556h821.216v-556h-821.216zM572 461.984h88v-88h-88v88zM218.016 461.984h88v-88h-88v88zM398.016 461.984h88v-88h-88v88zM218.016 257.984h88v-88h-88v88zM398.016 257.984h88v-88h-88v88zM836 461.984v-88h-88v88h88z" />
<glyph unicode="&#xe93e;" glyph-name="exclamation" d="M605.792 866.208c0 47.392-46.4 93.792-93.792 93.792s-93.792-46.4-93.792-93.792c0-47.392 31.808-588.608 31.808-588.608 0-34.208 27.808-62.208 62.208-62.208 34.208 0 62.016 27.808 62.016 62.208 0 0 31.616 541.216 31.616 588.608zM514.016 91.616c43.008 0 77.792-34.784 77.792-77.792s-34.784-77.792-77.792-77.792c-43.008 0-77.792 34.784-77.792 77.792s34.816 77.792 77.792 77.792z" />
<glyph unicode="&#xe93f;" glyph-name="exitchat" d="M810.016 240l-44 44 136 134.016h-550.016v62.016h550.016l-136 132 44 44 214.016-208zM640 832h-576v-768h576v288h64v-320c0-8-4-16-10.016-22.016s-14.016-10.016-22.016-10.016h-640c-8 0-16 4-22.016 10.016s-10.016 14.016-10.016 22.016c0 0 0 558.016 0 764 0 42.016 0 68 0 68 0 8 4 16 10.016 22.016s14.016 10.016 22.016 10.016h640c8 0 16-4 22.016-10.016s10.016-14.016 10.016-22.016v-320h-64v288z" />
<glyph unicode="&#xe940;" glyph-name="feed-empty" d="M34.208 845.984v68.416h45.6v34.016h-50.016c-16.384 0-29.792-13.408-29.792-29.792v-72.608h34.208zM854.016 914.4h68.192v-45.6h34.208v49.792c0 16.384-13.408 29.792-29.792 29.792h-72.608v-34.016zM136.608 948.416h68.192v-34.208h-68.192v34.208zM261.792 948.416h56.992v-34.208h-56.992v34.208zM375.808 948.416h56.992v-34.208h-56.992v34.208zM500.992 948.416h56.992v-34.208h-56.992v34.208zM615.008 948.416h56.608v-34.208h-56.608v34.208zM740 948.416h56.992v-34.208h-56.992v34.208zM922.4 811.808h34.208v-68.192h-34.208v68.192zM922.4 686.816h34.208v-56.992h-34.208v56.992zM922.4 572.8h34.208v-56.992h-34.208v56.992zM0 186.208h34.208v-56.608h-34.208v56.608zM0 311.008h34.208v-56.992h-34.208v56.992zM0 425.216h34.208v-56.992h-34.208v56.992zM0 549.984h34.208v-56.992h-34.208v56.992zM0 664h34.208v-56.192h-34.208v56.192zM0 789.184h34.208v-56.992h-34.208v56.992zM102.4 26.4h-68.192v45.6h-34.208v-49.792c0-16.384 13.408-29.792 29.792-29.792h72.608v34.016zM398.592 26.4h56.992v-34.208h-56.992v34.208zM284.384 26.4h56.608v-34.208h-56.608v34.208zM159.392 26.4h57.216v-34.208h-57.184v34.208zM559.392 24h-43.392v-34.016h64v6.208c-6.016 9.6-14.4 15.808-20.608 27.808zM956.384 403.2l-0.384 40.8h-34.208l0.192-22.784c12-5.408 23.392-11.008 34.4-18.016zM802.784 389.984c-122.208 0-221.216-99.008-221.216-221.216s99.008-221.216 221.216-221.216c122.208 0 221.216 99.008 221.216 221.216s-99.008 221.216-221.216 221.216zM856 236.192c0 10.016 7.616 18.208 16.992 18.208s16.992-8.192 16.992-18.208c0-2.592 0-18.208 0-20.8 0-10.016-7.616-18.016-16.992-18.016s-16.992 8.192-16.992 18.016c0 2.4 0 18.208 0 20.8zM718.016 215.2c0 2.592 0 18.208 0 20.8 0 10.016 7.392 18.208 16.608 18.208s17.408-8.192 17.408-18.208c0-2.592 0-18.208 0-20.8 0-10.016-8.192-18.016-17.408-18.016s-16.608 8-16.608 18.016zM880.384 72c-17.408 22.4-43.616 35.008-72 35.008s-54.592-12.8-72-35.008l-14.592 11.008c20.992 26.784 52.384 42.208 86.592 42.208s65.6-15.392 86.592-42.208l-14.592-11.008zM147.808 664h660.608v-45.6h-660.608v45.6zM148 777.792h660.384v-45.6h-660.384v45.6zM148 549.984h455.392v-45.6h-455.392v45.6z" />
<glyph unicode="&#xe941;" glyph-name="feed-off" d="M972.8 945.984h-921.6c-28.192 0-51.2-23.008-51.2-51.2v-895.616c0-28.192 23.008-51.2 51.2-51.2h921.6c28.192 0 51.2 23.008 51.2 51.2v895.616c0 28.192-23.008 51.2-51.2 51.2zM972-2.016h-920v436h920v-436zM972 484h-920v410.016h920v-410.016zM870.016 713.984h-512v52h512v-52zM870.016 612h-512v52h512v-52zM153.6 689.184c0 42.4 34.4 76.8 76.8 76.8s76.8-34.4 76.8-76.8c0-42.4-34.4-76.8-76.8-76.8s-76.8 34.4-76.8 76.8z" />
<glyph unicode="&#xe942;" glyph-name="feed-on" d="M1024 871.2c0 42.4-34.4 76.8-76.8 76.8h-870.4c-42.4 0-76.8-34.4-76.8-76.8v-844.384c0-42.4 34.4-76.8 76.8-76.8h870.4c42.4 0 76.8 34.4 76.8 76.8v844.384zM332 768h540v-52h-540v52zM872 665.984v-52h-540v52h540zM204.8 767.392c42.208 0 76.416-34.208 76.416-76.416s-34.208-76.384-76.416-76.384c-42.208 0-76.416 34.208-76.416 76.384-0.192 42.208 34.208 76.416 76.416 76.416zM922.016 101.984c0-28.192-22.208-50.016-50.592-50.016h-716.8c-28.192 0-52.608 21.792-52.608 50.016v334.016h820v-334.016z" />
<glyph unicode="&#xe943;" glyph-name="file-docx" d="M1024 820h-260v-96l98.016-4-120-440h-2.016l-162.016 530.016h-130.016l-164-530.016h-2.016l-138.016 530.016h-144l218.016-734.016h120l170.016 560h2.016l170.016-560h124l214.016 734.016z" />
<glyph unicode="&#xe944;" glyph-name="file-expire" d="M856 132l146.016 146.016c6.016 6.016 6.016 16 0 22.016l-22.016 24c-6.016 6.016-16 6.016-22.016 0l-146.016-146.016-146.016 146.016c-6.016 6.016-16 6.016-24 0l-22.016-24c-6.016-6.016-6.016-16 0-22.016l146.016-146.016-146.016-146.016c-6.016-6.016-6.016-16 0-22.016l22.016-24c8-6.016 18.016-6.016 24 0l146.016 148 146.016-148c6.016-6.016 16-6.016 22.016 0l22.016 24c6.016 6.016 6.016 16 0 22.016zM80 4v892h382.016v-382.016h382.016c0 0 0-74.016 0-166.016 0 0 62.016 48 62.016 46.016v182.016l-384 384h-442.016c-34.016 0-64-28-64-64v-892c0-34.016 30.016-62.016 64-62.016 0 0 236 0 446.016 0 0 0-2.016 62.016 0 62.016zM524 865.984l288-288h-288z" />
<glyph unicode="&#xe945;" glyph-name="file-hwp" d="M230.016 181.984c16-30.016 40-56 68-78.016s62.016-40 100-54.016c40-12 82.016-20 126.016-20 48 0 90.016 6.016 130.016 20 38.016 12 72 30.016 100 52 30.016 24 52 50.016 68 78.016 18.016 30.016 26.016 62.016 26.016 96 0 32-8 64-24 94.016-14.016 30.016-36 56-66.016 80-28 22.016-62.016 40-102.016 54.016s-84 20-132 20c-46.016 0-88-6.016-126.016-18.016-40-12-72-30.016-100-52s-52-48-68-78.016c-16-30.016-24-64-24-100 0-32 8-64 24-94.016zM696 205.984c-10.016-22.016-22.016-40-40-56-16-14.016-36-26.016-60-36-22.016-8-48-12-76-12-24 0-48 4-70.016 14.016-22.016 8-40 22.016-58.016 38.016-16 16-28 34.016-38.016 54.016-10.016 22.016-14.016 44-14.016 68 0 28 4 54.016 14.016 78.016 10.016 22.016 22.016 42.016 38.016 58.016 18.016 16 36 28 58.016 36 22.016 10.016 46.016 14.016 70.016 14.016 30.016 0 54.016-6.016 78.016-14.016 24-10.016 44-24 62.016-40 16-18.016 30.016-38.016 38.016-60 10.016-22.016 14.016-46.016 14.016-72s-6.016-50.016-16-70.016zM750.016 865.984c-22.016-4-48-6.016-78.016-8-28-4-58.016-6.016-86.016-8-30.016-2.016-56-4-80-6.016s-42.016-2.016-52-2.016c-12 0-26.016 0-44 2.016-20 2.016-38.016 4-56 6.016-20 2.016-38.016 4-56 6.016s-32 6.016-44 8l56-106.016c12 2.016 26.016 4 42.016 6.016 16 0 32 2.016 48 4 14.016 0 30.016 2.016 44 2.016 12 0 22.016 0 30.016 0 10.016 0 28 2.016 50.016 2.016s44 0 70.016 2.016c24 0 50.016 2.016 74.016 2.016s44 0 60 0zM1024 705.984c-38.016-4-80-10.016-128-14.016s-96-8-148-12c-52-4-104-6.016-154.016-8-52-4-102.016-6.016-148-8s-88-4-126.016-4c-38.016 0-68-2.016-90.016-2.016-14.016 0-30.016 2.016-52 2.016-20 0-42.016 2.016-64 4s-42.016 4-62.016 6.016c-22.016 2.016-38.016 4-52 6.016l52-108c12 2.016 28 4 46.016 6.016 20 2.016 38.016 4 58.016 6.016s40 2.016 58.016 4c20 2.016 34.016 2.016 46.016 4 16 0 44 2.016 80 2.016 36 2.016 76 4 122.016 6.016s96 4 148 4c52 2.016 104 4 152 4 50.016 0 94.016 2.016 136 0 42.016 0 74.016 0 100-2.016z" />
<glyph unicode="&#xe946;" glyph-name="file-mp3" d="M1022.016 197.984l-2.016 710.016c0 12-8 20-20 18.016h-662.016c-12-2.016-22.016-12-22.016-24v-596c-44 14.016-96 14.016-148-2.016-116-34.016-188-130.016-164-216 26.016-86.016 116-128 230.016-92 110.016 32 182.016 122.016 166.016 204v486.016c0 12 8 24 20 26.016h498.016c12 2.016 22.016-6.016 22.016-18.016v-418.016c-44 12-120 12-174.016-2.016-114.016-34.016-176-114.016-150.016-200 24-84 126.016-126.016 240-92 116 34.016 184 128 166.016 216z" />
<glyph unicode="&#xe947;" glyph-name="file-mp4" d="M972 113.984h-666.016c-30.016 0-52 24-52 54.016v176l-232-156c-12-10.016-22.016-4-22.016 12v496c0 16 10.016 20 22.016 12l232-156v176c0 30.016 22.016 54.016 52 54.016h666.016c28 0 52-24 52-54.016v-560c0-30.016-24-54.016-52-54.016z" />
<glyph unicode="&#xe948;" glyph-name="file-off" d="M922.016 625.984l-320 320c-10.016 10.016-20 14.016-32 14.016h-436c-24 0-44-20-44-44v-936c0-24 20-44 44-44h756c26.016 0 44 20 44 44v614.016c0 12-4 24-12 32zM602.016 884l258.016-258.016h-258.016zM134.016-20v936h422.016v-290.016c0-24 20-44 46.016-44h288v-602.016z" />
<glyph unicode="&#xe949;" glyph-name="file-on" d="M928 625.984l-326.016 322.016v-322.016zM556 625.984v334.016h-422.016c-24 0-44-20-44-44v-936c0-24 20-44 44-44h756c24 0 44 20 44 44v602.016h-332c-26.016 0-46.016 20-46.016 44z" />
<glyph unicode="&#xe94a;" glyph-name="file-pdf" d="M1020 316c-2.016 6.016-8 12-12 18.016-22.016 22.016-68 34.016-138.016 34.016h-8c-44 0-96-4-152-12-26.016 16-52 32-72 50.016-56 54.016-102.016 128-132 210.016 2.016 8 2.016 14.016 4 20 10.016 40 22.016 152 22.016 158.016v8c4 14.016 4 62.016 2.016 86.016 0 6.016-2.016 12-4 18.016l-10.016 22.016c-10.016 16-28 32-50.016 32h-18.016c-32 0-58.016-18.016-66.016-44-20-74.016 0-184 38.016-326.016l-10.016-22.016c-26.016-64-58.016-130.016-88-188l-2.016-6.016c-30.016-62.016-58.016-112-82.016-156l-26.016-12c-2.016-2.016-46.016-26.016-56-32-90.016-54.016-148-116-158.016-166.016-6.016-22.016 2.016-42.016 18.016-50.016l18.016-10.016c12-6.016 30.016-12 42.016-12 0 0 0 0 0 0 66.016 0 138.016 78.016 240 260 114.016 38.016 244 68 358.016 86.016 88-50.016 198.016-86.016 266.016-86.016 12 0 24 2.016 32 4 14.016 4 26.016 12 36 24 4 8 8 28 10.016 38.016l2.016 38.016zM76-2.016c16 32 42.016 84 112 134.016-36-78.016-70.016-114.016-112-134.016zM464 908c0 0 2.016 2.016 2.016 2.016 4-6.016 8-14.016 14.016-30.016 10.016-20 8-44 8-62.016v-8c0-12-10.016-46.016-16-74.016-8 40-12 80-12 112 0 12 0 38.016 4 60zM356 268c12 22.016 26.016 44 38.016 68 34.016 66.016 56 118.016 72 160 34.016-58.016 74.016-110.016 122.016-150.016 4-4 6.016-6.016 10.016-10.016-90.016-18.016-170.016-42.016-242.016-68zM982.016 265.984c-2.016-2.016-6.016-4-18.016-4-32 0-82.016 14.016-138.016 36 58.016 4 102.016 0 126.016-8 26.016-8 34.016-16 36-18.016-2.016-4-4-6.016-6.016-6.016z" />
<glyph unicode="&#xe94b;" glyph-name="file-png" d="M942.016 960h-860c-46.016 0-82.016-36-82.016-82.016v-860c0-46.016 36-82.016 82.016-82.016h860c46.016 0 82.016 36 82.016 82.016v860c0 46.016-36 82.016-82.016 82.016zM956 32c0-16-12-28-26.016-28h-836c-14.016 0-26.016 12-26.016 28v834.016c0 14.016 12 26.016 26.016 26.016h836c14.016 0 26.016-12 26.016-26.016v-834.016zM584 520l-132-132 178.016-154.016-36-42.016-262.016 228c-8 8-20 8-28 0l-202.016-150.016v-206.016c0-14.016 12-26.016 26.016-26.016h770.016c12 0 24 12 24 26.016v206.016l-310.016 250.016c-8 8-20 8-28 0z" />
<glyph unicode="&#xe94c;" glyph-name="file-pptx" d="M892 805.984c-20 38.016-48 68-82.016 92-34.016 22.016-74.016 38.016-120 48s-94.016 14.016-142.016 14.016h-448v-128h104v-896h182.016v424h130.016c54.016 0 106.016 4 154.016 12 50.016 8 94.016 22.016 132 44 36 22.016 66.016 52 88 92 22.016 38.016 34.016 90.016 34.016 156 0 56-10.016 104-32 142.016zM712 580c-16-20-36-34.016-58.016-44-24-10.016-50.016-16-78.016-18.016s-54.016-2.016-80-2.016h-110.016v288h130.016c24 0 48-2.016 74.016-4 26.016-4 50.016-10.016 72-20 20-10.016 38.016-24 52-44 12-18.016 20-44 20-76 0-34.016-8-62.016-22.016-80z" />
<glyph unicode="&#xe94d;" glyph-name="file-txt" d="M568.8 960h-455.008c-34.208 0-57.792-22.816-57.792-56.8v-910.208c0-34.208 23.616-56.8 57.792-56.8h796.384c34.208 0 57.792 22.784 57.792 56.8v568.8l-399.2 398.208zM910.016-8h-796v912h398.016v-400h398.016v-512z" />
<glyph unicode="&#xe94e;" glyph-name="file-xlsx" d="M636 472l336 488h-222.016l-238.016-378.016-242.016 378.016h-230.016l342.016-488-366.016-536h432v136h-128l186.016 296 270.016-432h232z" />
<glyph unicode="&#xe94f;" glyph-name="file-zip" d="M682.016 960h-170.016v-170.016h170.016zM342.016 789.984v-172h170.016v172zM682.016 448v170.016h-170.016v-170.016zM342.016 277.984h170.016v170.016h-170.016zM682.016 105.984v172h-170.016v-172zM342.016-64h170.016v170.016h-170.016z" />
<glyph unicode="&#xe950;" glyph-name="file" d="M412 208.384v0c0-0.192 1.792 1.216 3.808 3.2l395.2 389.408c4.992 4.992 8.8 10.816 11.392 17.408 7.392 18.592 2.784 39.808-11.616 53.792-19.808 19.616-52 19.616-71.616 0.192l-394.816-388.608c-26.208-24.608-44.992-47.808-71.392-21.792-26.208 25.792-2.816 43.808 22.208 69.792l432.8 425.792c0.608 0.416 0.992 0.992 1.408 1.6 53.216 52 113.6 75.392 166.016 23.808 51.392-50.592 52.608-133.216 2.592-184l-462.016-455.008c-0.608-0.384-0.992-0.992-1.408-1.6-0.192-0.192-0.192-0.192-0.192-0.192-75.392-74.208-198.816-73.216-275.2 2.208-37.216 36.608-57.792 85.216-57.792 136.992 0 50.784 20 98.208 56 133.792l3.2 3.008 292 287.616c19.2 18.816 19.008 52.192-0.192 71.2-19.808 19.584-52 19.584-71.584 0.192l-293.792-289.408c-56.192-55.2-87.008-128.384-87.008-205.792v0c0-78.592 31.2-152.8 88-208.608 116-114.208 303.616-115.2 418.4-2.208l2.016 2.016 444.192 436.992c2.592 2.4 4.8 5.184 6.784 8.384 75.808 89.408 92.992 250.816 7.2 335.392-92 90.592-225.6 60.8-316.608-28.992l-428-423.008c-1.6-1.6-2.816-3.2-4.192-4.992-59.808-64.8-80.608-142.208-16-206.016 64.416-63.392 143.392-42.4 210.208 17.408z" />
<glyph unicode="&#xe951;" glyph-name="file2" d="M960.698 850.432c-83.828 83.316-218.903 84.108-301.754 1.769-0.745-0.745-1.396-1.536-2.095-2.188l-488.076-485.283c-0.884-0.931-1.536-1.862-2.281-2.793-52.271-57.437-50.269-146.618 6.051-202.705 56.32-56.041 146.153-58.089 203.869-6.051 0.931 0.745 1.908 1.396 2.793 2.327l2.56 2.513 421.748 419.421c4.799 4.905 7.76 11.625 7.76 19.036 0 7.528-3.055 14.342-7.992 19.271v0c-4.959 4.949-11.804 8.009-19.365 8.009-7.444 0-14.194-2.966-19.134-7.782l0.006 0.006-5.911-5.865-417.559-415.185c-16.742-15.622-39.288-25.213-64.074-25.213-25.965 0-49.471 10.525-66.486 27.541v0c-17.094 16.851-27.684 40.261-27.684 66.144 0 24.69 9.636 47.129 25.352 63.762l-0.041-0.044 3.398 3.351 485.795 483.328c61.626 61.3 162.444 60.742 224.908-1.303 61.766-61.44 62.836-160.442 2.886-221.836l-3.351-3.444-488.448-485.795c-86.854-86.528-227.002-85.644-313.577 0.465-86.668 86.202-87.505 225.606-1.862 310.737l3.491 3.258 294.865 293.236c4.466 4.848 7.203 11.347 7.203 18.486 0 15.090-12.233 27.322-27.322 27.322-7.197 0-13.743-2.782-18.623-7.33l0.016 0.015-297.007-295.284c-108.125-107.52-107.055-280.902 1.024-388.422s282.391-108.544 389.213-2.234l499.805 497.059c1.515 1.446 2.814 3.1 3.854 4.921l0.056 0.106c70.191 82.991 65.396 207.732-14.010 286.72z" />
<glyph unicode="&#xe952;" glyph-name="gnb-back" d="M802.016 892l-70.016 68-440-444v2.016l-70.016-70.016 70.016-70.016v2.016l440-444 70.016 68-442.016 444z" />
<glyph unicode="&#xe953;" glyph-name="gnb-bandlogo" d="M842.016 637.984h-660c-102.016 0-182.016-86.016-182.016-190.016 0-106.016 80-190.016 182.016-190.016h660c102.016 0 182.016 84 182.016 190.016 0 104-80 190.016-182.016 190.016zM840 289.984h-656c-86.016 0-154.016 70.016-154.016 158.016 0 86.016 68 158.016 154.016 158.016h656c86.016 0 154.016-72 154.016-158.016 0-88-68-158.016-154.016-158.016zM274.016 452c14.016 10.016 22.016 24 22.016 44 0 28-20 58.016-62.016 58.016h-64c-18.016 0-30.016-14.016-30.016-32v-148c0-20 12-32 30.016-32h66.016c40 0 64 24 64 62.016 0 22.016-10.016 40-26.016 48zM184 509.984h44c16 0 24-6.016 24-20s-8-20-24-20h-44zM230.016 385.984h-46.016v44h48c10.016 0 24-4 24-22.016 0-16-8-22.016-26.016-22.016zM450.016 525.984c-6.016 20-22.016 30.016-40 30.016-20 0-34.016-10.016-40-30.016l-54.016-154.016c-4-12 2.016-26.016 12-30.016 2.016 0 6.016 0 8 0 8 0 18.016 6.016 20 14.016l16 44h76l14.016-44c4-8 12-14.016 20-14.016 4 0 6.016 0 10.016 2.016 10.016 4 16 16 12 28zM386.016 441.984l22.016 66.016c0 0 0 2.016 2.016 2.016 0 0 2.016 0 2.016-2.016l22.016-66.016h-48zM804 553.984h-44c-18.016 0-30.016-12-30.016-32v-148c0-20 12-32 30.016-32h44c58.016 0 94.016 32 96 90.016 2.016 8 2.016 20 0 32-4 58.016-38.016 90.016-96 90.016zM856 433.984c-2.016-32-18.016-48-52-48h-30.016v122.016h30.016c34.016 0 50.016-16 52-50.016 2.016-8 0-16 0-24zM678.016 553.984c-12 0-22.016-10.016-22.016-22.016v-124l-70.016 128c-6.016 12-18.016 18.016-30.016 18.016-20 0-34.016-14.016-34.016-36v-154.016c0-12 10.016-24 22.016-24s22.016 10.016 22.016 24v128l72-132c10.016-16 22.016-20 32-20 18.016 0 30.016 16 30.016 34.016v158.016c0 12-8 22.016-22.016 22.016z" />
<glyph unicode="&#xe954;" glyph-name="gnb-close" d="M1024 4l-444 446.016 440 440-68 68-440-440-440 442.016-70.016-68 442.016-442.016-444-446.016 68-68 444 444 444-444z" />
<glyph unicode="&#xe955;" glyph-name="holiday-2" d="M804.571 886.857h73.143c44.861 0 97.524-31.695 97.524-73.143v-804.571c0-41.448-28.282-73.143-73.143-73.143h-780.19c-44.91 0-73.143 31.695-73.143 73.143v804.571c0 41.448 28.233 73.143 73.143 73.143h97.524v73.143h97.524v-73.143h390.095v73.143h97.524v-73.143zM121.905 9.143h780.19v682.667h-780.19v-682.667zM479.378 296.594l-119.735 129.56-42.691-46.202 162.45-175.762 227.645 246.394-42.691 46.178z" />
<glyph unicode="&#xe956;" glyph-name="home-off" d="M526.016 896.992c-8.192 6.592-19.808 6.592-27.808 0l-498.208-391.008 23.392-46.592 116.608 93.184v-535.2c0-12.384 10.816-23.2 23.008-23.2h256c12.192 0 23.008 11.008 23.008 23.2v302.592h140v-302.816c0-12.384 11.008-23.2 23.008-23.2h256c12.192 0 23.008 11.008 23.008 23.2v535.392l116.608-92.992 23.392 46.4-498.016 391.008zM814.016 64h-162.016v302.4c0 12.384-11.392 23.616-23.616 23.616h-232.8c-12.192 0-23.616-11.392-23.616-23.616v-302.4h-162.016v535.008l302.016 232.8 302.016-232.8v-535.008z" />
<glyph unicode="&#xe957;" glyph-name="home-on" d="M1000.8 459.392l-116.384 92.992v-535.2c0-12.384-11.008-23.2-23.2-23.2h-256c-12.192 0-23.2 11.008-23.2 23.2v302.592h-139.616v-302.592c0-12.384-11.008-23.2-23.2-23.2h-256c-12.192 0-23.2 11.008-23.2 23.2v535.392l-116.416-92.992-23.616 46.4 498.016 391.008c8.192 6.784 19.808 6.784 27.808 0l498.208-391.008-23.2-46.592z" />
<glyph unicode="&#xe958;" glyph-name="home-post" d="M773.689 186.311h-68.267c-12.568 0-22.756-10.188-22.756-22.756s10.188-22.756 22.756-22.756v0h68.267v-68.267c0-12.568 10.188-22.756 22.756-22.756s22.756 10.188 22.756 22.756v0 68.267h68.267c12.568 0 22.756 10.188 22.756 22.756s-10.188 22.756-22.756 22.756v0h-68.267v68.267c0 12.568-10.188 22.756-22.756 22.756s-22.756-10.188-22.756-22.756v0zM796.444-64c-125.675 0-227.556 101.88-227.556 227.556s101.88 227.556 227.556 227.556c125.675 0 227.556-101.88 227.556-227.556v0c0-125.675-101.88-227.556-227.556-227.556v0zM796.444 345.6c-100.54 0-182.044-81.504-182.044-182.044s81.504-182.044 182.044-182.044c100.54 0 182.044 81.504 182.044 182.044v0c0 100.54-81.504 182.044-182.044 182.044v0zM123.221-41.244c-68.041 0.129-123.157 55.285-123.221 123.329v754.58c0 68.076 55.154 123.27 123.215 123.335h754.353c0.068 0 0.148 0 0.228 0 68.139 0 123.384-55.205 123.449-123.329v-417.57c0-9.671 5.689-27.989-22.756-27.989s-22.756 18.318-22.756 27.989v404.366c-1.119 49.814-41.208 89.903-90.917 91.020l-0.105 0.002h-728.178c-49.814-1.119-89.903-41.208-91.020-90.917l-0.002-0.105v-728.178c1.119-49.814 41.208-89.903 90.917-91.020l0.105-0.002h416.199c9.671 0 17.522 0 17.522-22.756s-7.851-22.756-17.522-22.756h-429.511zM224.939 664.178h540.103c12.568 0 22.756-10.188 22.756-22.756s-10.188-22.756-22.756-22.756v0h-539.989c-12.568 0-22.756 10.188-22.756 22.756s10.188 22.756 22.756 22.756v0zM225.052 550.4h382.407c12.568 0 22.756-10.188 22.756-22.756s-10.188-22.756-22.756-22.756v0h-382.521c-12.568 0-22.756 10.188-22.756 22.756s10.188 22.756 22.756 22.756v0zM224.939 436.622h292.523c12.568 0 22.756-10.188 22.756-22.756s-10.188-22.756-22.756-22.756v0h-292.523c-12.568 0-22.756 10.188-22.756 22.756s10.188 22.756 22.756 22.756v0zM224.939 322.844h157.582c12.568 0 22.756-10.188 22.756-22.756s-10.188-22.756-22.756-22.756v0h-157.582c-12.568 0-22.756 10.188-22.756 22.756s10.188 22.756 22.756 22.756v0z" />
<glyph unicode="&#xe959;" glyph-name="icon-leader" d="M240.4 555.8c0-19.661-15.939-35.6-35.6-35.6s-35.6 15.939-35.6 35.6c0 19.661 15.939 35.6 35.6 35.6s35.6-15.939 35.6-35.6zM855.4 555.8c0-19.661-15.939-35.6-35.6-35.6s-35.6 15.939-35.6 35.6c0 19.661 15.939 35.6 35.6 35.6s35.6-15.939 35.6-35.6zM550.6 623.2c0-19.661-15.939-35.6-35.6-35.6s-35.6 15.939-35.6 35.6c0 19.661 15.939 35.6 35.6 35.6s35.6-15.939 35.6-35.6zM799.6 539.2l-1.4-0.8-1 0.8-173-117.6-68.2 115.6-41.4 74-1.2-1.8-1.2 1.8-41.4-74-68.2-115.6-173 117.6-1-0.8-1.4 0.8-18-16 84-299h440.4l84 299z" />
<glyph unicode="&#xe95a;" glyph-name="info01" d="M512 960c-282.016 0-512-230.016-512-512s230.016-512 512-512c282.016 0 512 230.016 512 512s-230.016 512-512 512zM512 4c-246.016 0-444 198.016-444 444s198.016 444 444 444c246.016 0 444-198.016 444-444s-198.016-444-444-444zM518.016 241.984c-16 0-28-6.016-38.016-16-12-10.016-16-22.016-16-38.016 0-14.016 4-26.016 16-36 10.016-10.016 22.016-16 38.016-16 14.016 0 28 6.016 38.016 16s16 22.016 16 36c0 16-6.016 28-16 38.016s-24 16-38.016 16zM644 684c-16 14.016-32 22.016-52 30.016-20 6.016-42.016 10.016-66.016 10.016-48 0-88-14.016-120-40s-52-64-60-110.016l84-8c4 28 14.016 48 30.016 66.016 16 16 38.016 24 66.016 24 12 0 22.016-2.016 34.016-6.016 10.016-4 18.016-10.016 26.016-18.016s14.016-16 20-26.016c4-12 6.016-22.016 6.016-34.016 0-14.016-2.016-24-6.016-34.016-6.016-10.016-12-20-18.016-28-8-10.016-16-18.016-24-26.016-10.016-8-18.016-16-26.016-24-12-10.016-20-20-28-26.016-8-8-14.016-16-18.016-24-4-6.016-8-16-10.016-26.016-2.016-8-2.016-20-2.016-36v-48h78.016v36c0 10.016 0 20 2.016 28 0 6.016 2.016 14.016 6.016 20 2.016 6.016 6.016 12 12 18.016 6.016 4 12 12 20 20l8 8 50.016 48c12 14.016 20 28 26.016 44 6.016 14.016 8 32 8 54.016s-4 44-12 62.016c-8 18.016-20 34.016-34.016 46.016z" />
<glyph unicode="&#xe95b;" glyph-name="info02" d="M512 720c-34.016 0-60-28-60-62.016v-270.016c0-34.016 26.016-60 60-60s60 26.016 60 60v270.016c0 34.016-26.016 62.016-60 62.016zM512 960c-282.016 0-512-230.016-512-512s230.016-512 512-512c282.016 0 512 230.016 512 512s-230.016 512-512 512zM512-4c-250.016 0-452 202.016-452 452s202.016 452 452 452c250.016 0 452-202.016 452-452s-202.016-452-452-452zM512 268c-34.016 0-60-28-60-60 0-34.016 26.016-62.016 60-62.016s60 28 60 62.016c0 32-26.016 60-60 60z" />
<glyph unicode="&#xe95c;" glyph-name="info03" d="M611.2 28.384c0-25.216-10.016-46.784-29.792-64.992s-43.616-27.2-71.008-27.2-51.2 8.992-71.008 27.2c-19.808 18.208-29.792 39.808-29.792 64.992s10.016 46.784 29.792 64.992c19.808 18.208 43.392 27.2 71.008 27.2s51.2-8.992 71.008-27.2c20-18.208 29.792-39.808 29.792-64.992zM808.992 811.008c-15.808 32.192-37.408 59.2-64.8 81.216-27.616 21.792-60 38.592-96.992 50.4-37.216 11.584-77.216 17.408-120 17.408-89.6 0-164.608-23.008-225.184-69.216s-97.408-109.792-110.592-191.008l155.808-14.016c6.016 46.592 24.608 84.416 55.808 113.408 31.008 28.8 71.392 43.392 121.408 43.392 22.4 0 43.616-3.808 63.392-11.2s36.8-17.792 51.2-30.816c14.208-12.992 25.6-28.608 34.4-46.816 8.608-18.208 12.992-38.016 12.992-59.392s-4.384-40.8-12.992-58.016c-8.608-17.184-19.616-33.6-32.8-48.992s-28-30.4-44.192-44.8c-16.192-14.4-32.608-28.608-48.8-42.592-20.384-17.792-37.408-32.8-51.2-45.408s-24.608-25.6-32.8-39.2c-8.192-13.6-14.592-28.608-18.592-45.408s-6.4-37.792-6.4-63.008v-84.992h148v60.992c0 19.616 0.608 35.808 2.592 48.992 2.016 12.992 5.6 24.992 11.2 35.616 5.6 10.784 13.216 20.992 22.784 30.784s22.592 21.6 38.784 35.616l15.2 12.608 91.616 86.816c20.384 23.392 36 48.192 47.392 74.816 11.2 26.592 16.8 57.6 16.8 92.992-0.384 40.992-8.192 77.6-24 109.792z" />
<glyph unicode="&#xe95d;" glyph-name="invite-code" d="M772 253.984c0 20-16 34.016-34.016 34.016s-34.016-14.016-34.016-34.016c0-18.016 16-32 34.016-32s34.016 14.016 34.016 32zM812 573.984h-6.016v104c0 156-140 282.016-294.016 282.016s-294.016-126.016-294.016-282.016v-104h-6.016c-54.016 0-94.016-44-94.016-100v-440c0-54.016 44-98.016 98.016-98.016h592c54.016 0 98.016 44 98.016 98.016v440c0 56-40 100-94.016 100zM252 677.984c0 138.016 122.016 250.016 260 250.016s260-112 260-250.016v-104h-520zM874.016 33.984c0-36-30.016-64-66.016-64h-592c-36 0-66.016 28-66.016 64v440c0 38.016 30.016 66.016 66.016 66.016h592c36 0 66.016-28 66.016-66.016zM320 253.984c0-18.016-16-32-34.016-32-20 0-34.016 14.016-34.016 32 0 20 14.016 34.016 34.016 34.016 18.016 0 34.016-14.016 34.016-34.016zM470.016 253.984c0 20-16 34.016-34.016 34.016s-34.016-14.016-34.016-34.016c0-18.016 16-32 34.016-32s34.016 14.016 34.016 32zM622.016 253.984c0 20-16 34.016-34.016 34.016s-34.016-14.016-34.016-34.016c0-18.016 16-32 34.016-32s34.016 14.016 34.016 32z" />
<glyph unicode="&#xe95e;" glyph-name="invite-daum" d="M330.016 428v-2.016c0-8 6.016-10.016 14.016-10.016 6.016 0 12 0 16 2.016v26.016h-12c-12 0-18.016-4-18.016-16zM1024 576c0 76-72 128-156 128h-32c0 34.016-6.016 66.016-50.016 66.016h-734.016c-56 0-52-42.016-52-92v-178.016c0-204 186.016-374.016 410.016-374.016 168 0 320 94.016 390.016 228h76c84 0 148 60 148 136zM264 493.984c0-2.016-2.016-4-4-4 0 0 0 0 0 0-10.016 0-18.016 2.016-30.016 2.016s-18.016-8-18.016-26.016v-20c0-18.016 6.016-24 18.016-24s20 0 30.016 0c0 0 0 0 0 0 2.016 0 4-2.016 4-4v-28c0-4-2.016-6.016-4-6.016-10.016-2.016-20-4-36-4-38.016 0-60 24-60 66.016v20c0 42.016 22.016 66.016 60 66.016 16 0 28-2.016 36-4 2.016 0 4-2.016 4-4zM408 388c0-4-2.016-6.016-4-6.016h-36c-2.016 0-6.016 2.016-6.016 6.016v4c-8-6.016-22.016-12-36-12-20 0-44 12-44 46.016v2.016c0 32 24 42.016 66.016 42.016h12v8c0 12-8 14.016-18.016 14.016-16 0-32 0-44-2.016v0c-4 0-6.016 2.016-6.016 6.016v24c0 4 2.016 6.016 6.016 6.016 8 4 30.016 6.016 46.016 6.016 38.016 0 64-12 64-54.016zM524 500c0-4-4-6.016-6.016-6.016h-20v-106.016c0-4-2.016-6.016-4-6.016h-40c-2.016 0-4 2.016-4 6.016v106.016l-18.016 4c-2.016 2.016-4 2.016-4 6.016v22.016c0 2.016 2.016 4 4 4h18.016v8c0 38.016 18.016 46.016 44 46.016 8 0 16-2.016 24-2.016 2.016 0 4-2.016 4-6.016v-24c0-2.016-2.016-4-4-4h-12c-6.016 0-8-2.016-8-10.016v-8h20c2.016 0 6.016-2.016 6.016-4v-26.016zM674.016 448c0-4-2.016-6.016-4-6.016h-80c0-14.016 6.016-22.016 24-22.016 14.016 0 40 2.016 48 2.016h2.016c2.016 0 4 0 4-4v-22.016c0-6.016 0-6.016-4-8-16-6.016-34.016-8-56-8-34.016 0-66.016 18.016-66.016 66.016v18.016c0 44 26.016 68 68 68 44 0 66.016-28 66.016-68v-16zM944 480c-2.016-38.016-8-44-52-44h-62.016c4 18.016 6.016 44 6.016 64v124h56c44 0 50.016-8 52-46.016v-98.016zM610.016 493.984c-14.016 0-20-8-20-24v0h38.016c0 16-6.016 24-18.016 24z" />
<glyph unicode="&#xe95f;" glyph-name="invite-email" d="M996 820c-8 4-16 6.016-24 6.016h-920c-8 0-16-2.016-24-6.016l484-394.016zM512 352l-512 416v-646.016c0-30.016 24-52 52-52h920c28 0 52 22.016 52 52v646.016z" />
<glyph unicode="&#xe960;" glyph-name="invite-line" d="M1024 520c0 230.016-230.016 418.016-512 418.016s-512-188-512-418.016c0-206.016 182.016-378.016 428-410.016 16-4 40-12 46.016-26.016 4-14.016 2.016-34.016 0-46.016 0 0-6.016-36-6.016-44-2.016-14.016-10.016-52 44-28 54.016 22.016 294.016 174.016 402.016 298.016v0c74.016 82.016 110.016 164 110.016 256zM312 384h-102.016c-14.016 0-26.016 12-26.016 26.016v204c0 16 12 28 26.016 28s26.016-12 26.016-28v-176h76c14.016 0 26.016-12 26.016-28 0-14.016-12-26.016-26.016-26.016zM416 409.984c0-14.016-12-26.016-26.016-26.016s-26.016 12-26.016 26.016v204c0 16 12 28 26.016 28s26.016-12 26.016-28zM662.016 409.984c0-10.016-8-22.016-18.016-24-4-2.016-6.016-2.016-10.016-2.016-8 0-16 4-20 10.016l-104 144v-128c0-14.016-12-26.016-28-26.016-14.016 0-26.016 12-26.016 26.016v204c0 12 6.016 22.016 18.016 26.016 2.016 2.016 6.016 2.016 8 2.016 8 0 16-4 22.016-10.016l104-144v126.016c0 16 12 28 26.016 28 16 0 28-12 28-28v-204zM826.016 540c16 0 28-12 28-28 0-14.016-12-26.016-28-26.016h-74.016v-48h74.016c16 0 28-12 28-28 0-14.016-12-26.016-28-26.016h-102.016c-14.016 0-26.016 12-26.016 26.016v102.016c0 0 0 0 0 0v102.016c0 16 12 28 26.016 28h102.016c16 0 28-12 28-28 0-14.016-12-26.016-28-26.016h-74.016v-48z" />
<glyph unicode="&#xe961;" glyph-name="invite-link" d="M634.016 569.984c-42.016 40-94.016 66.016-152 72l-26.016-26.016c-2.016-4-6.016-6.016-8-10.016 2.016 0 6.016 0 8 0 58.016 0 112-22.016 152-62.016v0c40-40 62.016-94.016 62.016-152s-22.016-112-62.016-152l-206.016-204c-40-42.016-94.016-64-152-64-56 0-110.016 22.016-152 64-82.016 82.016-82.016 218.016 0 302.016l162.016 162.016c0 2.016 0 2.016 0 4 0 18.016 2.016 34.016 4 52l-190.016-192c-98.016-98.016-98.016-256 0-354.016 46.016-48 110.016-74.016 176-74.016 68 0 130.016 26.016 178.016 74.016l206.016 204c46.016 48 72 112 72 178.016 0 68-26.016 130.016-72 178.016zM950.016 885.984c-46.016 48-110.016 74.016-176 74.016-68 0-130.016-26.016-178.016-74.016l-206.016-204c-46.016-48-72-112-72-178.016 0-68 26.016-130.016 72-178.016 42.016-40 94.016-66.016 152-72l26.016 26.016c2.016 4 4 6.016 8 10.016-4 0-6.016 0-8 0-58.016 0-112 22.016-152 62.016s-62.016 94.016-62.016 152c0 58.016 22.016 112 62.016 152l206.016 206.016c40 40 94.016 62.016 152 62.016 56 0 110.016-22.016 152-62.016 40-42.016 62.016-96 62.016-152 0-58.016-22.016-112-62.016-152l-162.016-162.016c0-2.016 0-2.016 0-4 0-18.016-2.016-34.016-4-52l190.016 192c48 48 74.016 110.016 74.016 178.016 0 66.016-26.016 130.016-74.016 176z" />
<glyph unicode="&#xe962;" glyph-name="invite-member" d="M666.016 80c-88-32-184-48-280-48-116 0-236 24-342.016 76v18.016c0 32 18.016 84 44 102.016 0 0 144 104 148 106.016 12 10.016 20 16 28 24 14.016 12 22.016 22.016 30.016 34.016 0 0 0 0 0 2.016 6.016 10.016 10.016 24 10.016 36 2.016 12 0 24-2.016 36-4 28-16 50.016-30.016 72l-4 8c0 0 0 0-2.016 2.016 0 0 0 2.016-2.016 4-2.016 4-4 8-6.016 14.016-2.016 0-2.016 2.016-2.016 4-2.016 4-4 10.016-6.016 16 0 0 0 2.016 0 2.016-6.016 14.016-8 30.016-10.016 46.016-2.016 8-2.016 18.016-2.016 24v108c0 8 0 18.016 4 28v4c2.016 4 2.016 8 4 14.016l2.016 2.016c2.016 6.016 4 10.016 6.016 14.016 4 4 8 10.016 12 14.016 2.016 4 8 8 12 12l4 4c2.016 2.016 2.016 4 4 6.016 24 18.016 64 28 100 28 38.016 0 76-10.016 100-28 2.016-2.016 4-4 6.016-6.016l4-4c4-4 8-8 12-12s8-10.016 10.016-14.016c2.016-4 4-8 8-14.016v-4c2.016-4 4-8 6.016-12v-4c2.016-10.016 4-20 4-28v-108c0-6.016 0-16-2.016-24-2.016-16-6.016-32-10.016-46.016-2.016-6.016-4-14.016-8-20v-2.016c-2.016-6.016-4-10.016-8-14.016 0-2.016 0-4-2.016-4 0-2.016 0-2.016 0-2.016l-6.016-8c-14.016-22.016-22.016-44-28-72-2.016-12-2.016-24-2.016-36 2.016-12 6.016-26.016 10.016-36 0-2.016 2.016-2.016 2.016-2.016 6.016-12 16-22.016 28-34.016 8-6.016 16-14.016 30.016-24 0 0 12-8 30.016-20 0 0 54.016 14.016 32 30.016-42.016 30.016-46.016 32-46.016 32-10.016 8-18.016 14.016-24 20-10.016 8-14.016 14.016-18.016 22.016-4 4-4 10.016-6.016 16 0 8 0 14.016 2.016 22.016 2.016 18.016 14.016 36 26.016 54.016l4 8c2.016 2.016 4 4 4 6.016l2.016 4c4 6.016 6.016 10.016 8 16 2.016 2.016 2.016 4 2.016 6.016 4 6.016 6.016 14.016 10.016 24 4 16 8 34.016 10.016 52 2.016 12 4 22.016 4 32v102.016c0 14.016-2.016 28-6.016 42.016l-2.016 6.016c-2.016 4-4 10.016-6.016 18.016l-2.016 2.016c-2.016 8-6.016 16-10.016 22.016-4 8-6.016 12-12 18.016-4 6.016-14.016 14.016-20 20l-2.016 2.016c-4 4-6.016 6.016-10.016 10.016-34.016 24-76 38.016-124 38.016s-90.016-14.016-122.016-38.016c-4-4-8-6.016-10.016-10.016l-4-2.016c-6.016-6.016-10.016-12-16-18.016s-10.016-12-16-20c-2.016-6.016-6.016-14.016-10.016-20 0-2.016 0-4-2.016-6.016-2.016-6.016-4-12-6.016-18.016v-4c-4-14.016-6.016-28-6.016-42.016v-102.016c0-10.016 0-20 2.016-32 2.016-18.016 6.016-36 12-52 0 0 0-2.016 0-2.016 2.016-8 6.016-16 8-24 2.016-2.016 2.016-2.016 2.016-4 2.016-6.016 6.016-10.016 10.016-18.016v-2.016c2.016-2.016 2.016-4 4-6.016l6.016-8c10.016-18.016 22.016-36 26.016-54.016 0-8 2.016-14.016 0-22.016 0-6.016-2.016-12-4-16-4-8-10.016-14.016-18.016-22.016-6.016-6.016-14.016-12-24-20-2.016 0-2.016 0-150.016-106.016-38.016-28-68-88-68-136v-36c0-10.016 6.016-18.016 14.016-24 116-58.016 242.016-88 372-88 108 0 210.016 20 308 60 22.016 8-28 34.016-28 34.016zM776 249.984v250.016h-44v-250.016h-248v-44h248v-248h44v248h248v44z" />
<glyph unicode="&#xe963;" glyph-name="invite-message" d="M512 893.984c-282.016 0-512-172-512-382.016 0-132 78.016-246.016 214.016-314.016 0-2.016 0-2.016 0-4 0-56-32-118.016-52-152v0c-2.016-2.016-2.016-6.016-2.016-10.016 0-16 12-30.016 28-30.016 4 0 8 2.016 8 2.016s2.016 0 2.016 0c100 16 210.016 104 230.016 130.016 24-4 38.016-4 58.016-4 8 0 16 0 26.016 0 282.016 0 512 170.016 512 382.016 0 210.016-230.016 382.016-512 382.016z" />
<glyph unicode="&#xe964;" glyph-name="invite-off" d="M166.016 469.984l184-194.016-194.016-154.016 48-54.016 256 210.016c16 12 86.016 12 102.016 0l276-210.016 40 60-202.016 148 182.016 194.016c26.016 20 40 50.016 40 82.016v218.016c0 26.016-20 46.016-46.016 46.016h-680c-26.016 0-46.016-20-46.016-46.016v-218.016c0-32 14.016-62.016 40-82.016zM192 749.984h638.016v-184c0-16-8-30.016-20-40l-202.016-190.016-12 8c-36 28-132 28-168 0l-14.016-8-202.016 190.016c-12 10.016-20 26.016-20 40v184zM994.016 613.984l-50.016 28v-638.016h-864v638.016l-50.016-28c-12-8-18.016-22.016-18.016-36v-596c0-26.016 20-46.016 46.016-46.016h908c26.016 0 46.016 20 46.016 46.016v596c0 14.016-6.016 28-18.016 36zM496 892c10.016 6.016 22.016 6.016 32 0l30.016-30.016h96l-88 80c-32 24-76 24-108 0l-88-80h96z" />
<glyph unicode="&#xe965;" glyph-name="invite-qrcode" d="M228 865.984h-134.016v-134.016h134.016zM322.016 960h-322.016v-322.016h322.016zM284 676h-246.016v246.016h246.016zM930.016 865.984h-134.016v-134.016h134.016zM702.016 960v-322.016h322.016v322.016zM986.016 676h-246.016v246.016h246.016zM94.016 29.984h134.016v134.016h-134.016zM0-64h322.016v322.016h-322.016zM38.016 220h246.016v-246.016h-246.016zM94.016 504h-94.016v-38.016h94.016zM304 524h94.016v76h-94.016zM588 524v-38.016h132v38.016h-94.016v38.016h-96v-38.016zM530.016 164v38.016h-170.016v-114.016h76v76zM892 181.984h-38.016v58.016h-58.016v38.016h-38.016v56h-38.016v-132h-94.016v38.016h-38.016v-210.016h38.016v58.016h76v76h56v38.016h58.016v-58.016h-58.016v-56h96v-114.016h-38.016v-38.016h76v38.016h132v114.016h-132zM664-64v94.016h-38.016v-94.016zM530.016-64h58.016v38.016h-58.016zM436 49.984h58.016v38.016h-58.016zM626.016 429.984v-58.016h56v-38.016h38.016v96zM588 333.984h38.016v38.016h-38.016zM664 296v38.016h-38.016v-38.016zM816 296h38.016v38.016h-38.016zM986.016 465.984h38.016v38.016h-38.016zM664 808v38.016h-76v-38.016zM398.016 429.984h38.016v36h-38.016zM228 333.984h38.016v38.016h-38.016zM38.016 372h114.016v38.016h-152v-76h38.016zM758.016 29.984v-56h58.016v56zM986.016 240v56h38.016v38.016h-132v-94.016zM380 637.984h56v56h-56zM266.016 600h-96v-38.016h58.016v-132h38.016v170.016zM304 429.984h56v36h-56zM304 372v-76h56v76zM474.016 257.984v38.016h-114.016v-38.016zM456 372v-38.016h38.016v38.016zM530.016 296v38.016h-36v-38.016zM1024 372v58.016h-38.016v-58.016zM1024 144v96h-38.016v-96zM588 600h76v94.016h-76zM436 693.984h58.016v-132h36v208h-36v76h94.016v38.016h-20v76h-74.016v-76h-76v-38.016h-58.016v-94.016h76v-58.016zM456 465.984h38.016v-74.016h74.016v74.016h-38.016v38.016h-36v58.016h-38.016zM796 504h-38.016v-74.016h38.016zM892 600h-76v-38.016h38.016v-132h-38.016v-58.016h38.016v-38.016h38.016v96h94.016v36h-94.016z" />
<glyph unicode="&#xe966;" glyph-name="keyword" d="M512 916.384c258.784 0 468.384-209.792 468.384-468.384 0-258.784-209.792-468.384-468.384-468.384s-468.384 209.6-468.384 468.384c0 258.816 209.6 468.384 468.384 468.384zM512 960c-282.4 0-512-229.6-512-512s229.6-512 512-512 512 229.6 512 512c0 282.4-229.6 512-512 512v0zM740.608 371.392v261.184c0 24-19.616 43.616-43.616 43.616h-370.016c-24 0-43.616-19.616-43.616-43.616v-261.184zM283.392 328.8v-65.216c0-24 19.616-43.616 43.616-43.616h370.016c24 0 43.616 19.616 43.616 43.616v65.216z" />
<glyph unicode="&#xe967;" glyph-name="layer-album" d="M948 960h-872c-52 0-76-24-76-76v-872c0-52 24-76 76-76h866.016c52 0 82.016 24 82.016 76v872c0 52-24 76-76 76zM92 896h840c16 0 28-12 28-28v-574.016l-314.016 292c-24 22.016-62.016 22.016-86.016 0l-190.016-164-48 42.016c-24 20-62.016 20-86.016 0l-172-170.016v574.016c0 16 12 28 28 28zM932 0h-840c-16 0-28 12-28 28v174.016l216 210.016 270.016-256 52 50.016-190.016 170.016 192 160 356-330.016v-178.016c0-16-12-28-28-28z" />
<glyph unicode="&#xe968;" glyph-name="layer-album02" d="M964.192 956h-902.4c-33.216 0-61.792-25.408-61.792-58.592v-900.608c0-33.216 28.608-58.784 61.792-58.784h902.592c33.216 0 59.808 25.6 59.808 58.784v900.608c-0.192 33.216-26.784 58.592-60 58.592zM92 865.984h842.208l-0.608-476.992-261.184 252.608c-23.808 20.992-59.808 20.992-83.616 0l-151.008-128.992-45.792 40.384c-23.808 20.992-59.616 20.992-83.392 0l-216.608-226.208v539.2zM934.016 271.808l0.384-243.808h-842.4v177.792l258.016 267.2 259.808-249.984 53.408 61.792-155.616 151.808 122.784 124.992 303.616-289.792z" />
<glyph unicode="&#xe969;" glyph-name="layer-close" d="M1024 889.984l-70.016 70.016-442.016-442.016-442.016 442.016-70.016-70.016 442.016-442.016-442.016-442.016 70.016-70.016 442.016 442.016 442.016-442.016 70.016 70.016-442.016 442.016z" />
<glyph unicode="&#xe96a;" glyph-name="leader-option" d="M939.488 149.472c-6.176 5.408-9.408 13.824-8.768 23.040 0.288 4.32 0.416 8.672 0.416 13.056s-0.128 8.768-0.416 13.056c-0.64 9.216 2.56 17.632 8.768 23.040l36.288 31.68 1.664 6.336-2.848 8.256c-10.208 29.6-25.568 56.608-45.664 80.32l-5.632 6.624-6.24 1.664-45.376-16.096c-7.552-2.688-16.608-1.248-24.064 3.84-7.008 4.768-14.432 9.152-22.144 12.992-8.16 4.032-13.696 11.040-15.2 19.168l-8.96 47.936-4.576 4.64-8.48 1.6c-31.296 5.952-60.064 5.952-91.328 0l-8.48-1.6-4.576-4.64-8.96-47.936c-1.536-8.128-7.072-15.136-15.2-19.168-7.616-3.808-15.072-8.192-22.144-12.992-7.456-5.088-16.512-6.528-24.096-3.84l-45.376 16.096-6.24-1.696-5.632-6.624c-20.064-23.68-35.456-50.688-45.664-80.32l-2.848-8.256 1.664-6.336 36.288-31.68c6.208-5.408 9.376-13.792 8.768-23.040-0.288-4.32-0.448-8.672-0.448-13.056s0.16-8.736 0.448-13.056c0.64-9.248-2.56-17.632-8.768-23.040l-36.288-31.68-1.664-6.336 2.848-8.256c10.24-29.632 25.6-56.64 45.664-80.288l5.632-6.624 6.24-1.696 45.376 16.096c7.584 2.688 16.64 1.248 24.064-3.84 7.072-4.832 14.528-9.216 22.144-13.024 8.128-4.064 13.664-11.040 15.2-19.168l8.96-47.936 4.576-4.64 8.48-1.6c15.488-2.976 30.848-4.48 45.664-4.48s30.208 1.504 45.664 4.48l8.48 1.6 4.576 4.64 8.96 47.968c1.504 8.128 7.040 15.104 15.2 19.168 7.616 3.808 15.040 8.192 22.144 12.992 7.424 5.088 16.512 6.528 24.096 3.84l45.344-16.096 6.24 1.664 5.632 6.624c20.064 23.648 35.456 50.688 45.664 80.288l2.848 8.256-1.664 6.336-36.288 31.68zM742.592 67.424c-64.224 0-116.448 53.024-116.448 118.144s52.256 118.176 116.448 118.176c64.224 0 116.448-53.024 116.448-118.176s-52.256-118.144-116.448-118.144zM115.328 123.968v22.912c0 33.728 22.752 78.656 49.632 98.080l54.368 39.232c90.496 65.312 88.864 64.416 88.736 64.128 1.12 0.672 2.176 1.408 3.072 2.112 10.848 8.288 19.2 15.008 26.112 21.088 12.896 11.36 21.088 21.024 28.672 34.304 4.48 9.504 7.36 20.608 8.32 32.064 0.896 10.304 0.224 21.376-1.824 31.648-4.32 26.304-18.752 48.736-31.488 68.48l-4.704 7.328c-0.608 1.024-1.12 2.016-1.76 3.296l-2.080 4c-2.784 4.992-4.96 8.896-6.784 13.056l-1.056 2.784c-2.848 7.104-5.312 13.28-7.712 21.28-4.352 14.208-7.616 29.376-9.76 45.12-1.28 9.184-1.92 17.536-1.92 24.864v98.944c0 9.696 1.376 20.192 3.904 30.112l0.96 3.36c1.472 5.088 2.848 9.184 4.416 13.152l1.536 3.904c2.4 5.6 4.832 10.528 7.424 14.912 3.136 5.28 7.232 10.368 10.496 14.464 4.128 4.8 8.384 9.216 13.184 13.728l3.776 3.648c1.728 1.696 3.424 3.424 5.44 4.96 25.152 18.976 57.152 28.576 95.104 28.576s69.952-9.632 95.136-28.608c2.048-1.536 3.776-3.296 5.984-5.472l3.52-3.392c4.512-4.192 8.736-8.576 11.936-12.32 4.192-5.184 8.288-10.24 11.296-15.296 2.688-4.576 5.12-9.504 7.2-14.272l1.408-3.552c1.952-4.992 3.36-9.088 4.48-12.928l1.152-4.064c2.752-10.656 4.16-21.056 4.16-30.88v-98.944c0-7.2-0.64-15.616-1.92-24.96-2.144-15.712-5.472-30.944-9.888-45.376-2.272-7.584-4.64-13.664-7.68-21.056l-0.896-2.496c-1.792-4.096-3.936-7.968-6.816-13.184l-8.512-14.624c-12.768-19.808-27.232-42.24-31.232-66.912-2.336-11.872-3.008-22.752-2.144-33.248 0.736-8.832 2.976-17.632 7.808-29.76 0.672-1.888 1.344-3.744 2.784-6.56 5.696-9.568 22.624-26.336 25.952-29.632l8.8-8.64 45.536 53.408-8 7.712c-0.064 0.032-10.080 9.6-11.424 10.976-1.28 2.656-1.984 5.28-2.272 8.544-0.32 3.84 0.064 8.384 1.248 14.592 1.824 11.168 12.064 27.072 21.12 41.12l5.376 8.416c1.696 2.752 3.232 5.632 4.352 7.904l1.504 2.912c3.36 6.016 6.624 12.096 9.408 18.528 0.8 1.856 1.504 3.712 2.016 5.28 3.296 7.968 6.4 16.064 9.408 26.016 5.536 18.016 9.664 37.024 12.32 56.448 1.728 12.544 2.592 24.192 2.592 34.656v98.944c0 15.84-2.208 32.416-6.592 49.504l-1.44 5.088c-1.728 5.984-3.776 12-6.752 19.584l-1.824 4.576c-3.648 8.512-7.456 16.096-11.648 23.2-5.44 9.152-11.712 17.056-17.856 24.608-5.504 6.4-11.52 12.672-17.504 18.24l-2.752 2.656c-4.032 4-8.16 7.872-12.832 11.36-37.408 28.192-83.328 42.464-136.512 42.464s-99.104-14.304-136.48-42.464c-4.736-3.584-8.896-7.456-12.416-11.008l-2.784-2.656c-6.368-5.952-12.352-12.192-18.816-19.744-5.344-6.592-11.52-14.4-17.024-23.68-4.128-7.008-7.904-14.528-11.936-23.968l-1.984-4.992c-2.336-5.952-4.384-11.968-6.656-19.712l-1.248-4.416c-4.224-16.512-6.368-32.896-6.368-48.672v-98.944c0-10.624 0.864-22.304 2.592-34.656 2.656-19.328 6.752-38.304 11.68-54.144 0.16-0.608 0.896-3.392 1.088-3.968 2.528-8.16 5.6-16.128 8.736-23.808 0.704-1.952 1.408-3.904 2.208-5.696 2.752-6.368 5.952-12.32 9.568-18.784l1.088-2.112c1.472-2.912 2.976-5.792 5.056-9.152l5.088-7.936c9.44-14.688 19.232-29.888 21.344-42.656 0.96-4.896 1.28-9.248 0.96-12.992-0.256-2.976-0.864-5.632-0.384-4.96-2.432-4.064-6.304-8.288-12.928-14.144-5.92-5.216-13.12-10.944-22.080-17.792-4.64-3.296-21.568-15.52-90.592-65.344l-54.4-39.232c-44.928-32.48-78.816-99.328-78.816-155.488v-34.144c0-20.16 11.072-38.208 28.896-47.136 117.888-58.88 244.576-88.736 376.576-88.736h11.584v70.464h-11.584c-117.6 0-230.624 25.792-336.064 76.64z" />
<glyph unicode="&#xe96b;" glyph-name="leader" d="M240.416 555.808c0-19.648-15.936-35.616-35.584-35.616s-35.584 15.936-35.584 35.616c0 19.648 15.936 35.616 35.584 35.616s35.584-15.936 35.584-35.616zM855.392 555.808c0-19.648-15.936-35.616-35.616-35.616s-35.616 15.936-35.616 35.616c0 19.648 15.936 35.616 35.616 35.616s35.616-15.936 35.616-35.616zM550.592 623.2c0-19.648-15.936-35.616-35.616-35.616s-35.616 15.936-35.616 35.616c0 19.648 15.936 35.616 35.616 35.616s35.616-15.936 35.616-35.616zM799.616 539.2l-1.408-0.8-0.992 0.8-172.992-117.6-68.192 115.616-41.408 74.016-1.216-1.792-1.216 1.792-41.408-74.016-68.192-115.616-172.992 117.6-0.992-0.8-1.408 0.8-18.016-16 84-299.008h440.384l84 299.008z" />
<glyph unicode="&#xe96c;" glyph-name="left" d="M280 477.984l394.016 466.016c16 18.016 46.016 22.016 66.016 6.016 18.016-16 22.016-46.016 6.016-64l-372-438.016 372-438.016c16-18.016 12-48-6.016-64-20-16-50.016-12-66.016 6.016l-396 466.016c-6.016 10.016-10.016 20-10.016 30.016s4 20 12 30.016z" />
<glyph unicode="&#xe96d;" glyph-name="like-off" d="M512 960c-282.016 0-512-230.016-512-512s230.016-512 512-512c282.016 0 512 230.016 512 512s-230.016 512-512 512zM512 0c-246.016 0-448 202.016-448 448 0 248 202.016 448 448 448s448-200 448-448c0-246.016-202.016-448-448-448zM512 233.984c-66.016 0-128 32-168 84l-60-46.016c56-70.016 138.016-112 228-112s172 42.016 228 112l-60 46.016c-40-52-102.016-84-168-84zM336 480c26.016 0 48 18.016 48 42.016v46.016c0 22.016-22.016 40-48 40s-48-18.016-48-40v-46.016c0-24 22.016-42.016 48-42.016zM688 480c26.016 0 48 18.016 48 42.016v46.016c0 22.016-22.016 40-48 40s-48-18.016-48-40v-46.016c0-24 22.016-42.016 48-42.016z" />
<glyph unicode="&#xe96e;" glyph-name="like-on" d="M512 960c-282.016 0-512-230.016-512-512s230.016-512 512-512c282.016 0 512 230.016 512 512s-230.016 512-512 512zM640 568c0 22.016 22.016 40 48 40s48-18.016 48-40v-46.016c0-24-22.016-42.016-48-42.016s-48 18.016-48 42.016zM288 568c0 22.016 22.016 40 48 40s48-18.016 48-40v-46.016c0-24-22.016-42.016-48-42.016s-48 18.016-48 42.016zM512 160c-90.016 0-172 42.016-228 112l60 46.016c40-52 102.016-84 168-84s128 32 168 84l60-46.016c-56-70.016-138.016-112-228-112z" />
<glyph unicode="&#xe96f;" glyph-name="lock" d="M824 600h-4v68c0 160-150.016 292-310.016 292s-306.016-132-306.016-292v-68h-4c-56 0-96-46.016-96-102.016v-460c0-56 44-102.016 100-102.016h616c56 0 100 46.016 100 102.016v460c0 56-40 102.016-96 102.016zM256 668c0 142.016 112 240 254.016 240s258.016-98.016 258.016-240v-66.016h-512zM870.016 53.984c0-38.016-30.016-66.016-68-66.016h-580c-38.016 0-68 28-68 66.016v428c0 38.016 30.016 68 68 68h580c38.016 0 68-30.016 68-68v-428zM486.016 165.984h52v230.016h-52z" />
<glyph unicode="&#xe970;" glyph-name="login-phone" d="M726.016 960h-428c-44 0-80-38.016-80-84v-856c0-46.016 36-84 80-84h428c44 0 80 38.016 80 84v856c0 46.016-36 84-80 84zM566.016-10.016h-108v54.016h108zM754.016 97.984h-484v754.016h484z" />
<glyph unicode="&#xe971;" glyph-name="make" d="M1024 412h-476v-476h-72v476h-476v72h476v476h72v-476h476z" />
<glyph unicode="&#xe972;" glyph-name="makealbum" d="M752 349.984h-44v-108h-108v-44h108v-110.016h44v110.016h108v44h-108zM730.016 501.984c-156 0-284-126.016-284-282.016 0-158.016 128-284 284-284s282.016 126.016 282.016 284c0 156-126.016 282.016-282.016 282.016zM730.016-20c-132 0-240 106.016-240 240 0 132 108 238.016 240 238.016s240-106.016 240-238.016c0-134.016-108-240-240-240zM164 741.984h-44v174.016h676v-370.016h42.016v370.016c0 24-18.016 44-42.016 44h-676c-24 0-44-20-44-44v-174.016h-64v-44h152zM164 501.984h-44v132h-44v-132h-64v-44h152zM164 261.984h-44v132h-44v-132h-64v-42.016h152zM120 153.984h-44v-66.016c0-24 20-44 44-44h284v44h-284z" />
<glyph unicode="&#xe973;" glyph-name="map-off" d="M506.016 960c-14.016 0-26.016 0-40-2.016-172-18.016-304-154.016-326.016-324-12-88 8-172 56-246.016l284-438.016c6.016-8 16-14.016 26.016-14.016s20 6.016 24 14.016l294.016 442.016c40 58.016 64 128 64 198.016 0 206.016-176 370.016-382.016 370.016zM788 413.984l-282.016-424-274.016 420c-42.016 66.016-58.016 142.016-50.016 218.016 20 152 138.016 272 288 288 12 0 24 0 36 0 182.016 0 336-144 336-326.016 0-62.016-20-122.016-54.016-176zM512 713.984c-68 0-122.016-54.016-122.016-122.016s54.016-124 122.016-124c68 0 122.016 56 122.016 124s-54.016 122.016-122.016 122.016zM512 509.984c-46.016 0-82.016 36-82.016 82.016 0 44 36 80 82.016 80s82.016-36 82.016-80c0-46.016-36-82.016-82.016-82.016z" />
<glyph unicode="&#xe974;" glyph-name="map-on" d="M474.016 957.984c-166.016-16.992-301.792-150.592-322.4-317.408-10.592-85.792 8-169.6 53.792-242.208l282.208-448.992c5.408-8.384 14.4-13.408 24.384-13.408s19.008 4.992 24.384 13.6l282.016 448.8c37.216 58.816 56.8 126.4 56.8 195.808 0.192 214.208-183.2 386.208-401.184 363.808zM511.808 465.184c-66.816 0-120.992 55.616-120.992 123.808s54.4 123.808 120.992 123.808c66.816 0 121.184-55.616 121.184-123.808-0.192-68.192-54.4-123.808-121.184-123.808z" />
<glyph unicode="&#xe975;" glyph-name="mb-join" d="M532.309 491.989c4.16 11.584 11.776 23.467 19.349 35.093l4.565 7.019c1.088 1.771 2.112 3.691 3.072 5.632l1.771 3.243c2.517 4.565 5.035 9.109 7.211 14.080 0.512 1.109 0.939 2.304 1.557 4.053 2.645 6.336 5.163 12.736 7.573 20.715 4.523 14.677 7.936 30.080 10.069 45.76 1.269 8.148 2.027 17.59 2.090 27.197v67.779c0 11.904-1.664 24.32-4.907 36.864l-1.28 4.523c-1.874 6.34-3.682 11.39-5.718 16.321l0.406-1.111-1.323 3.2c-2.988 6.975-5.964 12.762-9.283 18.322l0.387-0.7c-4.372 6.934-8.821 12.93-13.673 18.569l0.169-0.201c-4.514 5.191-9.112 9.925-13.957 14.394l-0.123 0.112-2.496 2.411c-2.778 2.79-5.729 5.402-8.836 7.822l-0.209 0.157c-29.077 21.675-65.173 32.661-107.221 32.661-42.091 0-78.165-10.987-107.264-32.661-3.307-2.517-6.187-5.227-9.024-7.979l-2.517-2.432c-5.119-4.73-9.857-9.623-14.312-14.768l-0.194-0.229c-4.547-5.306-8.871-11.163-12.757-17.324l-0.363-0.617c-2.881-4.782-5.821-10.492-8.403-16.394l-0.387-0.992c-0.576-1.301-1.067-2.624-1.877-4.693-1.56-3.714-3.289-8.632-4.783-13.652l-0.294-1.153-1.024-3.627c-3.039-11.025-4.824-23.697-4.906-36.773v-67.76c0-8.213 0.704-17.344 2.091-27.2 2.176-15.851 5.589-31.253 9.899-45.184 2.624-8.597 5.12-14.997 7.957-21.973 0.448-1.216 0.917-2.475 1.408-3.541 2.24-5.056 4.821-9.771 8.064-15.531 1.835-3.605 2.837-5.547 4.053-7.467l4.48-6.912c9.664-14.869 19.669-30.251 22.208-45.547 1.28-6.336 1.664-12.288 1.195-17.771-0.427-5.291-1.707-10.133-3.84-14.784-3.477-5.568-8.235-10.816-15.787-17.387-5.483-4.779-12.224-10.155-20.715-16.555-0.512-0.341-0.576-0.384-128.917-92.053-33.728-24.107-60.16-75.733-60.16-117.504v-15.296c0-0.014 0-0.031 0-0.048 0-18.308 10.628-34.134 26.051-41.645l0.275-0.121c90.31-43.48 196.361-68.884 308.346-68.884 16.47 0 32.812 0.55 49.009 1.631l-2.198-0.118c-38.92 47.545-62.507 108.955-62.507 175.874 0 0.217 0 0.434 0.001 0.65v-0.033c0 98.901 51.179 185.472 128 234.539zM825.685 329.621l0.002-0.002c4.522-4.477 7.323-10.689 7.323-17.555s-2.801-13.078-7.325-17.557l-117.824-116.949c-5.696-5.653-13.397-7.616-20.864-6.656-7.403-0.96-15.125 1.003-20.843 6.656l-65.773 65.175c-4.525 4.471-7.33 10.68-7.33 17.544s2.804 13.073 7.332 17.547l-0.002-0.002c4.538 4.498 10.783 7.276 17.676 7.276s13.139-2.778 17.675-7.274l48.107-47.637 100.16 99.413c16.085 9.707 31.936 9.707 41.685 0zM705.941 486.208c-128.533 0-232.747-101.845-232.747-227.541 0-125.653 104.213-227.563 232.747-227.563 128.555 0 232.725 101.888 232.725 227.563 0 125.696-104.171 227.563-232.747 227.563z" />
<glyph unicode="&#xe976;" glyph-name="member-profile-phone" d="M1008 809.984c-2.016 2.016-108 152-170.016 150.016-174.016-6.016-380-174.016-522.016-316-140-140-310.016-346.016-316-520v-2.016c0-60 148-168 150.016-170.016 40-28 86.016-18.016 104 8 10.016 16 124 188 138.016 208 4 10.016 8 20 8 32 0 16-6.016 34.016-14.016 50.016s-38.016 66.016-52 92c16 20 54.016 72 134.016 150.016 80 80 130.016 118.016 152 134.016 26.016-14.016 76-42.016 92-50.016 30.016-18.016 62.016-20 82.016-6.016 20 12 190.016 126.016 206.016 138.016 16 10.016 24 30.016 24 52 0 16-6.016 34.016-16 50.016zM962.016 757.984c-26.016-18.016-172-116-200-132-4 0-10.016 0-20 6.016-12 6.016-44 24-90.016 50.016l-36 20-32-24c-26.016-18.016-78.016-58.016-160-140s-124-136-142.016-160l-22.016-34.016 20-34.016c18.016-34.016 42.016-76 50.016-90.016 6.016-10.016 6.016-18.016 6.016-20 0 0 0 0 0 0-16-24-116-174.016-134.016-200-2.016 0-8 0-14.016 4-56 42.016-116 98.016-124 122.016 6.016 120 112 288 298.016 474.016s354.016 290.016 474.016 296c24-8 82.016-66.016 122.016-122.016 2.016-4 4-10.016 4-14.016 0-2.016 0-2.016 0-2.016z" />
<glyph unicode="&#xe977;" glyph-name="member-profile-save" d="M574.016 428h204c12 0 20 8 20 20s-8 20-20 20h-204c-12 0-22.016-8-22.016-20s10.016-20 22.016-20zM574.016 549.984h204c12 0 20 10.016 20 20 0 12-8 22.016-20 22.016h-204c-12 0-22.016-10.016-22.016-22.016 0-10.016 10.016-20 22.016-20zM984 816h-944c-22.016 0-40-18.016-40-40v-656c0-22.016 18.016-40 40-40h944c22.016 0 40 18.016 40 40v656c0 22.016-18.016 40-40 40zM962.016 140h-900v616h900zM462.016 341.984c-6.016 10.016-52 34.016-76 42.016-16 8-20 18.016-22.016 26.016 0 8 0 18.016 0 26.016 4 4 8 10.016 12 14.016 8 8 12 24 16 60 4 50.016-24 80-64 82.016v0c0 0 0 0 0 0s0 0 0 0v0c-40-2.016-68-32-64-82.016 4-36 8-52 16-60 4-4 8-10.016 12-14.016 0-8 0-18.016-2.016-26.016 0-8-4-18.016-20-26.016-24-8-72-32-76-42.016-10.016-26.016-10.016-38.016-10.016-38.016h288c0 0 0 12-10.016 38.016zM574.016 304h204c12 0 20 10.016 20 22.016 0 10.016-8 20-20 20h-204c-12 0-22.016-10.016-22.016-20 0-12 10.016-22.016 22.016-22.016z" />
<glyph unicode="&#xe978;" glyph-name="member-profile-sms" d="M934.016 837.984v0h-844c-58.016 0-90.016-28-90.016-90.016v-600c0-62.016 32-88 90.016-88l844-2.016c60 0 90.016 28 90.016 90.016v600c0 62.016-30.016 90.016-90.016 90.016zM90.016 769.984h822.016c8 0 18.016 0 24-6.016l-424-366.016-430.016 370.016c2.016 2.016 4 2.016 8 2.016zM958.016 169.984c0-20-26.016-44-46.016-44h-800c-20 0-46.016 24-46.016 44v534.016c0 2.016 0 2.016 0 4l422.016-364c8-6.016 16-10.016 24-10.016s16 4 24 10.016l420 364c2.016-2.016 2.016-2.016 2.016-4z" />
</font>
</defs>
</svg>
